Jakob Bloch Jespersen, Concerto Copenhagen - Ich bin die Auferstehung: Buxtehude & His Copenhagen Connections (2020) [24/192]

Posted By: delpotro
Jakob Bloch Jespersen, Concerto Copenhagen - Ich bin die Auferstehung: Buxtehude & His Copenhagen Connections (2020) [24/192]

Jakob Bloch Jespersen, Concerto Copenhagen & Lars Ulrik Mortensen - Ich bin die Auferstehung: Buxtehude & His Copenhagen Connections (2020)
FLAC (tracks) 24-bit/192 kHz | Front Cover & Digital Booklet | Time - 66:43 minutes | 2,25 GB
Classical, Vocal | Label: Dacapo, Official Digital Download

The music from the Baltic region in the latter half of the 17th century is characterized by fearless innovation and bubbling creativity. Here, a glimpse into the sacred solo-cantata and chamber music of this period is presented by bass-baritone Jakob Bloch Jespersen and Concerto Copenhagen under the direction of Lars Ulrik Mortensen.

Tracklist:
1. Jakob Bloch Jespersen, Concerto Copenhagen & Lars Ulrik Mortensen – Ich bin der Auferstehung und das Leben, BuxWV 44 (06:02)
2. Concerto Copenhagen & Lars Ulrik Mortensen – Sonata sopra ut, re, mi, fa, sol, la (06:49)
3. Jakob Bloch Jespersen, Concerto Copenhagen & Lars Ulrik Mortensen – Gott hilf mir denn das Wasser geht mir bis an die Seele (10:28)
4. Lars Ulrik Mortensen – 14 Preludes, Fugues & Toccatas: No. 13, Toccata in A Minor (05:22)
5. Jakob Bloch Jespersen, Concerto Copenhagen & Lars Ulrik Mortensen – Kommet her zu mir alle, die ihr mühselig und beladen seid (08:10)
6. Jakob Bloch Jespersen, Concerto Copenhagen & Lars Ulrik Mortensen – Jesu dulcis memoria (08:02)
7. Concerto Copenhagen & Lars Ulrik Mortensen – Sonata á 6 (06:00)
8. Jakob Bloch Jespersen, Fredrik From & Lars Ulrik Mortensen – Mein Herz ist bereit (09:23)
9. Concerto Copenhagen & Lars Ulrik Mortensen – Sonata á 7 (06:23)

foobar2000 1.4.1 / Dynamic Range Meter 1.1.1
log date: 2020-08-14 20:31:37

––––––––––––––––––––––––––––––––––––––––
Analyzed: Concerto Copenhagen / Ich bin die Auferstehung - Buxtehude & His Copenhagen Connections (1-3)
Jakob Bloch Jespersen / Ich bin die Auferstehung - Buxtehude & His Copenhagen Connections (4-8)
Lars Ulrik Mortensen / Ich bin die Auferstehung - Buxtehude & His Copenhagen Connections (9)
––––––––––––––––––––––––––––––––––––––––

DR Peak RMS Duration Track
––––––––––––––––––––––––––––––––––––––––
DR12 -9.04 dB -24.31 dB 6:50 02-Sonata sopra ut, re, mi, fa, sol, la
DR13 -4.61 dB -22.07 dB 6:00 07-Sonata á 6
DR11 -6.59 dB -20.59 dB 6:23 09-Sonata á 7
DR11 -4.01 dB -18.81 dB 6:03 01-Ich bin der Auferstehung und das Leben, BuxWV 44
DR13 -3.93 dB -18.99 dB 10:29 03-Gott hilf mir denn das Wasser geht mir bis an die Seele
DR13 -4.71 dB -22.33 dB 8:11 05-Kommet her zu mir alle, die ihr mühselig und beladen seid
DR11 -4.59 dB -18.04 dB 8:02 06-Jesu dulcis memoria
DR12 -4.58 dB -20.87 dB 9:24 08-Mein Herz ist bereit
DR12 -16.39 dB -31.11 dB 5:22 04-14 Preludes, Fugues & Toccatas: No. 13, Toccata in A Minor
––––––––––––––––––––––––––––––––––––––––

Number of tracks: 9
Official DR value: DR12

Samplerate: 192000 Hz
Channels: 2
Bits per sample: 24
Bitrate: 4771 kbps
Codec: FLAC
================================================================================


Thanks to the Original customer!