Ida Haendel, Czech PO - Lalo: Symphonie Espagnole & Ravel: Tzigane (1964) [Japan 2018] PS3 ISO + Hi-Res FLAC

Posted By: HDAtall
Ida Haendel, Czech PO - Lalo: Symphonie Espagnole & Ravel: Tzigane (1964) [Japan 2018] PS3 ISO + Hi-Res FLAC

Ida Haendel, Czech Philharmonic Orchestra - Lalo: Symphonie Espagnole / Ravel: Tzigane (1964) [Japan 2018]
PS3 Rip | SACD ISO | DSD64 2.0 > 1-bit/2.8224 MHz | 43:30 minutes | Front/Rear covers | 1,2 GB
or FLAC Stereo (converted with foobar2000 to tracks) 24bit/96 kHz | Front/Rear covers | 994 MB

This is the world's first SACD reissue of Lalo's famous performance, which combines the beautiful and rich sound of violin of Ida Handel with Czech Philharmonic Orchestra, conducted by Karel Ančerl. This reissue uses a new DSD sound sourced from the original analog master tape. The jacket photo uses the original LP design, renews the sound quality and reprints.

Lalo’s "Symphonie espagnole" is in fact a violin concerto, pure and simple: the title was intended to concentrate the listener’s mind on the Spanish nature of the music. The bold and close recording imposes this flavour immediately, although there is surely more subtlety in the balancing of textures than this; not that the results are less than acceptable. By the time the Spanish rhythms and themes have made their influence tell, Haendel has delivered some commanding virtuoso playing. Perhaps it is in the lighter sections of the middle movements (Nos. 2, 3 and 4 of 5) that the performance comes off best. Here the subtleties are experienced and the clarity of the re-mastered sound is at its most effective. For all that this repertoire makes an unlikely combination, the playing has real style and panache and the disc will give much satisfaction.

Ravel orchestrated his single–movement "Tzigane" soon after he had completed the violin-and-piano original. The piece begins with a cadenza, and while Ida Haendel is held in close focus by the microphone she passes this test of her accuracy and tone quality. When the orchestra appears there are some odd balances, though the overall effect is not unpleasing. Given the vintage of the recording, made nearly 55 years ago, the sound is very good. Karel Ančerl was a skilful orchestral accompanist, among his abundant other talents.

Tracklist:

01. Edouard Lalo: Symphonie espagnole 1st Movement
02. Edouard Lalo: Symphonie espagnole 2nd Movement
03. Edouard Lalo: Symphonie espagnole 3rd Movement
04. Edouard Lalo: Symphonie espagnole 4th Movement
05. Edouard Lalo: Symphonie espagnole 5th Movement
06. Maurice Ravel: Tzigane

Personnel
Ida Haendel - violin
Czech Philharmonic Orchestra - Conducted by Karel Ančerl

Recorded in the House of Artists in Prague, Czechoslovakia.
Remastered from the original analogue master tapes.

foobar2000 1.5.1 / Dynamic Range Meter 1.1.1

––––––––––––––––––––––––––––––––––––––––
Analyzed: Ida Haendel,violin Karel Ancerl conducting Czech Philharmonic Orchestra / Lalo:Symphonie espagnole, Ravel:Tzigane
––––––––––––––––––––––––––––––––––––––––

DR Peak RMS Duration Track
––––––––––––––––––––––––––––––––––––––––
DR12 -4.99 dB -23.03 dB 7:45 01-Lalo:Symphonie espagnole 1st Movement
DR16 -6.09 dB -26.81 dB 4:22 02-Lalo:Symphonie espagnole 2nd Movement
DR16 -5.73 dB -26.20 dB 6:35 03-Lalo:Symphonie espagnole 3rd Movement
DR15 -6.07 dB -26.09 dB 6:37 04-Lalo:Symphonie espagnole 4th Movement
DR16 -4.71 dB -26.29 dB 7:18 05-Lalo:Symphonie espagnole 5th Movement
DR16 -6.70 dB -27.51 dB 10:54 06-Ravel:Tzigane
––––––––––––––––––––––––––––––––––––––––

Number of tracks: 6
Official DR value: DR15

Samplerate: 2822400 Hz / PCM Samplerate: 176400 Hz
Channels: 2
Bits per sample: 1
Bitrate: 5645 kbps
Codec: DSD64


Thanks to the Original ripper!
Tower Records Japan # TWSA-1050
Uncompressed SACD ISO size > 1,75 GB
>