Ella Fitzgerald - Clap Hands, Here Comes Charlie! (1962/1989/2014) [Official Digital Download 24bit/192kHz]

Posted By: HDV
Ella Fitzgerald - Clap Hands, Here Comes Charlie! (1962/1989/2014) [Official Digital Download 24bit/192kHz]

Ella Fitzgerald - Clap Hands, Here Comes Charlie! (1962/2014)
FLAC (tracks) 24 bit/192 kHz | Time - 58:54 minutes | 2,41 GB
Studio Master, Official Digital Download | Artwork: Digital booklet

This early '60s studio session captures Ella Fitzgerald moving toward the smaller, more pointedly jazz-inflected ensembles that would shape her career in her final decades. The intimate setting, superb musicianship and stellar recording make it a favorite among jazz-oriented audiophiles. Not to be missed!

Another typically wonderful reissue of Ella Fitzgerald in her prime, this set augments the original LP (which finds Ella joined by pianist Lou Levy, guitarist Herb Ellis, bassist Joe Mondragon, and drummer Stan Levey) with three previously unreleased selections from the same era (with Levey, bassist Wilfred Middlebrooks, and drummer Gus Johnson). Ella is in fine form on such numbers as "A Night in Tunisia," an emotional "You're My Thrill," "Jersey Bounce," "Clap Hands! Here Comes Charlie," and an unissued "The One I Love (Belongs to Somebody Else)." Although not reaching the heights of her live performances, this is an excellent (and somewhat underrated) set.

Tracklist:

01 - A Night In Tunisia
02 - You're My Thril
03 - My Reverie
04 - Stella By Starlight
05 - 'Round Midnight
06 - Jersey Bounce
07 - Signing Off
08 - Cry Me A River
09 - This Year's Kisses
10 - Good Morning Heartache
11 - (I Was) Born To Be Blue
12 - Clap Hands Here Comes Charlie!
13 - Spring Can Really Hang You Up The Most
14 - Music Goes Round And Around
15 - The One I Love Belongs To Somebody Else
16 - I Got A Guy
17 - This Could Be The Start Of Something Big

Produced by Norman Granz.
Recorded in Los Angeles, CA, June 22-24, 1961 (tracks 1-14) and New York City, January 23, 1961 (tracks 15-17).

Musicians:
Ella Fitzgerald - Vocals
Lou Levy - Piano
Herb Ellis - Guitar
Joe Mondragon - Bass (tracks 1-14)
Wilfred Middlebrooks - Bass (tracks 15-17)
Stan Levey - Drums (tracks 1-14)
Gus Johnson - Drums (tracks 15-17)

Analyzed: Ella Fitzgerald / Clap Hands Here Comes Charlie!
––––––––––––––––––––––––––––––––––––––––

DR Peak RMS Duration Track
––––––––––––––––––––––––––––––––––––––––
DR12 -4.83 dB -19.55 dB 4:08 01-A Night In Tunisia
DR10 -7.31 dB -24.71 dB 3:38 02-You're My Thril
DR11 -4.78 dB -19.65 dB 3:18 03-My Reverie
DR11 -2.62 dB -18.32 dB 3:17 04-Stella By Starlight
DR11 -8.38 dB -23.75 dB 3:28 05-'Round Midnight
DR12 -4.21 dB -18.40 dB 3:34 06-Jersey Bounce
DR12 -6.88 dB -22.59 dB 3:47 07-Signing Off
DR11 -4.59 dB -17.92 dB 4:14 08-Cry Me A River
DR11 -3.86 dB -19.78 dB 2:18 09-This Year's Kisses
DR11 -5.41 dB -20.73 dB 4:20 10-Good Morning Heartache
DR11 -5.48 dB -20.31 dB 2:42 11-(I Was) Born To Be Blue
DR11 -3.06 dB -17.12 dB 2:43 12-Clap Hands Here Comes Charlie!
DR11 -5.24 dB -21.02 dB 6:16 13-Spring Can Really Hang You Up The Most
DR11 -4.24 dB -17.32 dB 2:29 14-Music Goes Round And Around
DR10 -3.88 dB -16.93 dB 2:15 15-The One I Love Belongs To Somebody Else
DR10 -6.22 dB -20.64 dB 3:44 16-I Got A Guy
DR12 -3.72 dB -17.65 dB 2:43 17-This Could Be The Start Of Something Big
––––––––––––––––––––––––––––––––––––––––

Number of tracks: 17
Official DR value: DR11

Samplerate: 192000 Hz
Channels: 2
Bits per sample: 24
Bitrate: 5791 kbps
Codec: FLAC
================================================================================


Thanks to the Original customer!