Eguana - Cry (2021) [Official Digital Download]

Posted By: El Misha
Eguana - Cry (2021) [Official Digital Download]

Eguana - Cry (2021)
FLAC (tracks) 24-bit/44.10 kHz | Time - 36:01 | 380 MB
Studio Master, Official Digital Download | Artwork: Front cover

Eguana goes deeper in his chillstep, future garage style with his new album "Cry", a dive into an emotional ocean through harmonic waves.



Tracklist:

1. I'm a Liar (04:10)
2. Mom (04:36)
3. I Am Here Alone (02:40)
4. Living in the Cold (04:17)
5. Cry for the Night (04:21)
6. Coming for You (05:01)
7. Makes Me Wanna Cry (03:35)
8. Back Home (03:57)
9. When the Day is Done (03:24)

foobar2000 1.4 / Dynamic Range Meter 1.1.1
log date: 2021-01-13 22:29:47

––––––––––––––––––––––––––––––––––––––––
Analyzed: Eguana / Cry
––––––––––––––––––––––––––––––––––––––––

DR Peak RMS Duration Track
––––––––––––––––––––––––––––––––––––––––
DR9 -0.20 dB -10.81 dB 4:10 01-I'm a Liar
DR8 -0.20 dB -10.21 dB 4:36 02-Mom
DR9 -0.20 dB -10.59 dB 2:40 03-I Am Here Alone
DR8 -0.20 dB -9.94 dB 4:18 04-Living in the Cold
DR9 -0.20 dB -10.35 dB 4:22 05-Cry for the Night
DR8 -0.20 dB -9.68 dB 5:02 06-Coming for You
DR9 -0.20 dB -10.24 dB 3:35 07-Makes Me Wanna Cry
DR9 -0.20 dB -9.95 dB 3:58 08-Back Home
DR9 -0.20 dB -9.96 dB 3:24 09-When the Day is Done
––––––––––––––––––––––––––––––––––––––––

Number of tracks: 9
Official DR value: DR9

Samplerate: 44100 Hz
Channels: 2
Bits per sample: 24
Bitrate: 1481 kbps
Codec: FLAC
================================================================================



Thanks to the Original customer!