Derrick Hodge - Live Today (2013) [Official Digital Download]

Posted By: HDV
Derrick Hodge - Live Today (2013) [Official Digital Download]

Derrick Hodge - Live Today (2013)
FLAC (tracks) 24-bit/44,1 kHz | Time - 59:26 minutes | 680 MB
Studio Master, Official Digital Download | Artwork: Front cover

Live Today signals a new journey for bassist and composer Derrick Hodge as he embarks on a solo recording career. The title alludes to his top guiding principle in creating his 2013 debut album, a stunning achievement that showcases the profound depth and breadth of his musicality. Even though Hodge has played with such jazz titans as pianist Mulgrew Miller and trumpeter (and labelmate) Terence Blanchard, as well as R&B stars Jill Scott and Maxwell, the 33-year-old bassist is probably best known for anchoring the Grammy award-winning Robert Glasper Experiment. Similar to how Glasper concocts a distinctive m‚lange of modern jazz, hip-hop, and R&B, Live Today too integrates those genres and more into something that's potent and personal.

Derrick Hodge - Live Today (2013) [Official Digital Download]

Bassist, composer and producer Derrick Hodge has spent much of his life absorbing, studying, and playing music: from gospel and classical to hip-hop, Philly-and-neo soul; from post-bop and modern jazz, to cinema music. Live Today, his debut for Blue Note, reflects the sum total of his professional experience – working with Mulgrew Miller, Terrence Blanchard, Stefon Harris, Common, Jill Scott, Q-Tip, Maxwell, and the Robert Glasper Experiment, composing film scores, etc. – that has resulted in a rarified musical vision. Hodge's self-produced album is a sprawling, hour-long set, that displays a mercurial, adventurous aesthetic, which is as disciplined as it is fluid and welcoming. Live Today is polished, not slick; it frames and colors a music that is purposely raw and kinetic – most of the album was composed just weeks before recording – and preserves moments of unplanned inspiration. Opener "The Real," embodies almost everything at once. Commencing with samples, loose percussion, and tight kit work from Chris Dave, a vampish melody from keyboardist James Poyser emerges and gradually invites the horn section (Keyon Harrold, trumpet; Marcus Strickland, tenor saxophone; Corey King, trombone), turntables, synths, and Hodge playing electric and acoustic basses. It's a groover; equal parts contemporary and post-bop jazz, and funky neo-soul. On "Message of Hope," Hodge plays a nearly hummable melody in the upper register of his electric, accompanied by drummer Mark Colenburg and Travis Sayles on keyboards. The bass solo builds on the repetitive vamp frenetically, becoming an encounter with jazz-rock. Common rhymes breezily and soulfully on the jazzy hip-hop of the title track, with Glasper's instantly recognizable pianos (acoustic and Rhodes), and Dave's rolling, in-the-pocket restrained snare and hi hat. Hodge moves underneath, pushing at the tune's edges until it expands. "Dances with Ancestors" is a nocturnal ballad with numerous interlocking parts from various keyboards, killer breakbeats, a post-bop horn chart, and Hodge's bass interludes tying it together. "Anthem in 7" is a syncopated, dazzling, bass-driven groover that embodies dubstep, contemporary jazz, and neo-soul. "Holding On to You," a nearly straight-ahead folk-pop number, features vocalist/guitarist Alan Hampton, and is adorned only by the leader's upright bass and his arrangement for the American String Quartet. They also appear on on the haunting "Solitude," with pianist Aaron Parks on top, and Dave keeping slippery time; Hodge solos around the entire frame, almost like a singing voice. On the public domain Christian hymn, "Doxology (I Remember)," the bassist bows his upright on the melody, accompanied by Sayles' B-3 sounding like church organ. Closer "Night Vision," on which Hodge plays all instruments, is the last of several interludes interspersed throughout the set, denoting the album's various sections. For all its exploration and diversity, Live Today would be a cipher, were it not for Hodge's intense focus that reins the entire sprawling encounter, into a provocative, utterly engaging whole.

Tracklist:

01 - The Real
02 - Table Jawn
03 - Message Of Hope
04 - Boro March
05 - Live Today (feat. Common)
06 - Dances With Ancestors
07 - Anthem In 7
08 - Still The One
09 - Holding Onto You (feat. Alan Hampton)
10 - Solitude
11 - Rubberband
12 - Gritty Folk
13 - Doxology (I Remember)
14 - Night Visions

Analyzed: Derrick Hodge / Live Today
––––––––––––––––––––––––––––––––––––––––

DR Peak RMS Duration Track
––––––––––––––––––––––––––––––––––––––––
DR7 -0.21 dB -10.23 dB 5:08 01-The Real
DR8 -0.64 dB -12.30 dB 1:24 02-Table Jawn
DR6 -0.09 dB -9.47 dB 4:55 03-Message Of Hope
DR6 -0.34 dB -8.63 dB 4:49 04-Boro March
DR7 -0.23 dB -9.88 dB 4:16 05-Live Today (feat. Common)
DR7 -0.08 dB -9.53 dB 5:43 06-Dances With Ancestors
DR6 -0.35 dB -9.12 dB 3:45 07-Anthem In 7
DR8 -0.68 dB -13.02 dB 4:44 08-Still The One
DR9 -0.74 dB -13.32 dB 4:50 09-Holding Onto You (feat. Alan Hampton)
DR9 -0.90 dB -13.45 dB 5:56 10-Solitude
DR9 -0.29 dB -12.19 dB 1:24 11-Rubberband
DR7 0.00 dB -9.15 dB 5:41 12-Gritty Folk
DR9 -0.92 dB -14.21 dB 4:32 13-Doxology (I Remember)
DR8 0.00 dB -11.37 dB 2:19 14-Night Visions
––––––––––––––––––––––––––––––––––––––––

Number of tracks: 14
Official DR value: DR8

Samplerate: 44100 Hz
Channels: 2
Bits per sample: 24
Bitrate: 1376 kbps
Codec: FLAC
================================================================================


Thanks to the Original customer!

Derrick Hodge - The Second (2016)