Dawn Chorus and the Infallible Sea - Liberamente (2020) [Official Digital Download 24/48]

Posted By: delpotro
Dawn Chorus and the Infallible Sea - Liberamente (2020) [Official Digital Download 24/48]

Dawn Chorus and the Infallible Sea - Liberamente (2020)
FLAC (tracks) 24-bit/48 kHz | Front Cover | Time - 47:28 minutes | 465 MB
Ambient, Drone | Label: Azure Vista Records, Official Digital Download

Second album from American trio Dawn Chorus and the Infallible Sea, consisting of zakè, Marc Ertel and Damien Duque. Together they're creating soft-textured and slowly unfolding sonic landscapes, somewhere between guitar-oriented drone music and modern classical. Liberamente is the kind of album that demands attention and patience from the listener, yet it's ultimately a very rewarding one.

Stylistically Dawn Chorus and the Infallible Sea sums up several decades of American soundscape and drone music, taking threads from Windy & Carl, Auburn Lull, and Stars of the Lid then weaves them into a contemporary, and sonically adventurous whole. On the surface it suggests simplicity, but dig deeper and the seven pieces on Liberamente reveals a rare compositional dexterity. This is minimalism at its finest.

Tracklist:
1. Liberamente (07:06)
2. Silenzio Potente (07:10)
3. Dormi Bene, Spirito (05:53)
4. Lontana (04:04)
5. Ciclo (10:21)
6. Caduta del Cielo (04:06)
7. Drala (08:48)

foobar2000 1.4.1 / Dynamic Range Meter 1.1.1
log date: 2020-10-18 20:20:00

––––––––––––––––––––––––––––––––––––––––
Analyzed: Dawn Chorus and the Infallible Sea / Liberamente
––––––––––––––––––––––––––––––––––––––––

DR Peak RMS Duration Track
––––––––––––––––––––––––––––––––––––––––
DR10 -0.31 dB -14.64 dB 7:06 01-Liberamente
DR9 -0.30 dB -12.23 dB 7:10 02-Silenzio Potente
DR11 -1.08 dB -14.77 dB 5:53 03-Dormi Bene, Spirito
DR10 -0.39 dB -15.12 dB 4:04 04-Lontana
DR10 -0.21 dB -14.98 dB 10:21 05-Ciclo
DR9 -0.38 dB -13.21 dB 4:06 06-Caduta del Cielo
DR9 -0.33 dB -12.73 dB 8:48 07-Drala
––––––––––––––––––––––––––––––––––––––––

Number of tracks: 7
Official DR value: DR10

Samplerate: 48000 Hz
Channels: 2
Bits per sample: 24
Bitrate: 1405 kbps
Codec: FLAC
================================================================================


Thanks to the Original customer!