Autechre - SIGN (2020) [Official Digital Download]

Posted By: delpotro
Autechre - SIGN (2020) [Official Digital Download]

Autechre - SIGN (2020)
FLAC (tracks) 24-bit/44,1 kHz | Front Cover | Time - 65:32 minutes | 671 MB
Experimental Electronic, Ambient | Label: Warp Records, Official Digital Download

Autechre albums are like language immersion programs: At first they don’t make sense, but listen close and familiar shapes emerge. Not that SIGN is accessible per se: We’re still talking about something closer to computer programming than what most people would consider music. But for a group that can be almost mythically forbidding (2016’s four-hour-long—and 12-hours-dense—elseq), SIGN is almost pop. Thirty years in and the UK production duo’s roots still show: Hip-hop on “M4 Lema,” house on “psin AM,” far-out synth soundtracks on “F7” and “Metaz form8.” But it all remains deconstructed and once removed. Most music depends on memories of something you’ve heard before. With Autechre, you can feel your brain stretch as you listen. Normally they sound like they’re pushing forward or settling in. With SIGN, it’s both.

Tracklist:
1. M4 Lema (08:49)
2. F7 (05:56)
3. si00 (05:51)
4. esc desc (04:55)
5. au14 (05:03)
6. Metaz form8 (06:00)
7. sch.mefd 2 (05:25)
8. gr4 (03:21)
9. th red a (06:35)
10. psin AM (06:20)
11. r cazt (07:12)

foobar2000 1.4.1 / Dynamic Range Meter 1.1.1
log date: 2020-10-18 20:17:12

––––––––––––––––––––––––––––––––––––––––
Analyzed: Autechre / SIGN
––––––––––––––––––––––––––––––––––––––––

DR Peak RMS Duration Track
––––––––––––––––––––––––––––––––––––––––
DR7 -0.09 dB -10.49 dB 8:50 01-M4 Lema
DR13 -0.11 dB -15.43 dB 5:57 02-F7
DR4 -0.08 dB -8.49 dB 5:51 03-si00
DR10 -0.10 dB -12.37 dB 4:56 04-esc desc
DR7 -0.24 dB -8.74 dB 5:04 05-au14
DR10 -0.10 dB -13.23 dB 6:00 06-Metaz form8
DR5 -0.10 dB -6.87 dB 5:26 07-sch.mefd 2
DR12 -3.37 dB -17.67 dB 3:21 08-gr4
DR10 -0.10 dB -13.77 dB 6:36 09-th red a
DR10 -0.10 dB -11.82 dB 6:20 10-psin AM
DR8 -0.30 dB -10.59 dB 7:12 11-r cazt
––––––––––––––––––––––––––––––––––––––––

Number of tracks: 11
Official DR value: DR9

Samplerate: 44100 Hz
Channels: 2
Bits per sample: 24
Bitrate: 1359 kbps
Codec: FLAC
================================================================================


Thanks to the Original customer!