Arne Domnerus, Leif Strands Kammarkor - Sorgen och Gladjen (1971/2016) [DSD128 + Hi-Res FLAC]

Posted By: HDV
Arne Domnerus, Leif Strands Kammarkor - Sorgen och Gladjen (1971/2016) [DSD128 + Hi-Res FLAC]

Arne Domnérus, Leif Strands Kammarkör - Sorgen och Glädjen (1971/2016)
DSD128 (.dsf) 1 bit/5,6 MHz | Time - 43:37 minutes | 1,89 GB
FLAC (tracks) 24-bit/88,2 kHz | Time - 43:37 minutes | 797 MB
Studio Master, Official Digital Download | Artwork: Digital booklet

Swedish chamber choir Leif Strands Kammarkör was established in the 1960s to unite a vocal ensemble with a traditional jazz band. On this 1971 release for audiophile label Proprius, some of Sweden's top jazz musicians of the day join the choir performing traditional, chorale and spiritual music.

Sorgen och Glädjen (Sorrow & Joy) is one of the gorgeous albums of Leif Strands Kammarkör. The album's primary genre is Classical, but contains a who’s who of the Swedish Jazz elite during this time period. On this album, the Leif Stand Choir from Sweden join with Jazz greats Georg Riedel, Arne Domnérus, Egil Johansen and Bengt Hallberg - best known for their work on the classic Jazz At The Pawnshop. Joy and Sorrow features the choir and musicians performing traditional, chorale and spiritual music.

Tracklist:

01 - Sorgen och glädjen (arr. L. Strand for choir)
02 - Världens frälsare, kom här (arr. L. Strand for choir)
03 - Lagd på strå (arr. A. Frostenson for choir)
04 - Kommen I herdar (arr. L. Strand for choir)
05 - Vallåtar från Rättvik
06 - Se, vi gå upp till Jerusalem (arr. L. Strand for choir)
07 - Min själ, du måste glömma (arr. L. Strand for choir)
08 - Krist är uppstånden (arr. L. Strand for choir)
09 - Dig Helge Ande bedja vi (arr. L. Strand for choir)
10 - Veni, Sancte Spiritus (arr. L. Strand for choir)
11 - Som fågelen vid ljusan dag (arr. L. Strand)
12 - En herrdag i höjden (arr. L. Strand)
13 - O, hur saligt att få vandra (arr. L. Strand for choir)

Alto Saxophone – Arne Domnérus
Bass – Georg Riedel
Guitar – Rune Gustafsson
Piano – Bengt Hallberg
Percussion – Egil Johansen

Leif Strands Kammarkör:
Alto Vocals – Birgitta Bergqvist, Ieva Zalitis, Ingrid Haking,
Karin Öhman, Lena Gustavsson, Margareta Malmnäs
Bass Vocals – Björn Eriksson, Erik Rentzhog, Hans-Christer Eriksson,
Ingar Winqvist, Per-Arne Norman, Peter Engström,
Svenerik Blomgren, Torgny Carlsson, Örjan Svane
Soprano Vocals – Anna-Lena Hallgren, Berit Norberg, Bodil Hellebro,
Eva Strand, Eva-Lis Hammarström, Inger Örback, Lena Nordin, Mette Franzén
Tenor Vocals – Christer Lexing, Kjell Hagegård, Lars Örback, Sven-Olof Carlsson
Leif Strand - Conductor, Arranger

For the 2xHD transfer of this recording, the original 1/4”, 15 ips CCIR master tape was played on a Nagra-T modified with high end tube playback electronics, wired with OCC silver cable from the playback head direct to a Telefunken EF806 tube. The Nagra T has one of the best transports ever made, having four direct drive motors, two pinch rollers and a tape tension head.

DSD was done using Merging Horus/Hapi A/D converter, calibrated to the required format, and a dCS Vivaldi clock.
2xHD was created by producer/studio owner André Perry and audiophile sound engineer René Laflamme.

Analyzed: Arne Domnérus, Rune Gustafsson, Bengt Hallberg, Egil Johansen, Georg Riedel, Leif Strands Kammarkör / Sorgen och Glädjen
––––––––––––––––––––––––––––––––––––––––

DR Peak RMS Duration Track
––––––––––––––––––––––––––––––––––––––––
DR13 -10.18 dB -27.54 dB 5:08 01-Sorgen och glädjen (arr. L. Strand for choir)
DR14 -6.87 dB -26.81 dB 2:36 02-Världens frälsare, kom här (arr. L. Strand for choir)
DR18 -8.76 dB -31.09 dB 1:37 03-Lagd på strå (arr. A. Frostenson for choir)
DR13 -10.17 dB -28.38 dB 2:30 04-Kommen I herdar (arr. L. Strand for choir)
DR12 -6.52 dB -25.49 dB 2:59 05-Vallåtar från Rättvik
DR12 -12.05 dB -30.26 dB 2:45 06-Se, vi gå upp till Jerusalem (arr. L. Strand for choir)
DR13 -15.79 dB -35.52 dB 4:24 07-Min själ, du måste glömma (arr. L. Strand for choir)
DR13 -16.27 dB -35.52 dB 2:20 08-Krist är uppstånden (arr. L. Strand for choir)
DR11 -9.93 dB -27.06 dB 5:22 09-Dig Helge Ande bedja vi (arr. L. Strand for choir)
DR14 -6.42 dB -28.53 dB 4:01 10-Veni, Sancte Spiritus (arr. L. Strand for choir)
DR11 -16.66 dB -33.05 dB 3:10 11-Som fågelen vid ljusan dag (arr. L. Strand)
DR14 -16.22 dB -35.76 dB 2:19 12-En herrdag i höjden (arr. L. Strand)
DR13 -12.89 dB -31.40 dB 4:25 13-O, hur saligt att få vandra (arr. L. Strand for choir)
––––––––––––––––––––––––––––––––––––––––

Number of tracks: 13
Official DR value: DR13

Samplerate: 5644800 Hz / PCM Samplerate: 88200 Hz
Channels: 2
Bits per sample: 1
Bitrate: 11290 kbps
Codec: DSD128
================================================================================


Thanks to the Original customer!