Apocryphos, Kammarheit, Atrium Carceri - Echo (2017) [Official Digital Download]

Posted By: HDV
Apocryphos, Kammarheit, Atrium Carceri - Echo (2017) [Official Digital Download]

Apocryphos, Kammarheit, Atrium Carceri - Echo (2017)
FLAC (tracks) 24-bit/44,1 kHz | Time - 54:17 minutes | 514 MB
Studio Master, Official Digital Download | Artwork: Front cover

A collaboration between Apocryphos, Atrium Carceri and long-standing dark ambient one man elite squad Kammarheit? That's crazy talk! Well, of course it isn't, and Echo is in fact their second effort together, after the impressive Onyx made the rounds a while back. "Echo" explores mankind’s weakness to self destruction. As nature is cyclical so is man’s will to destroy. Like a Moth drawn to pulsating light, the painful histories of the past echo with terrifying glee.


Rumbling drone hits your chest, a smooth contour of bass stroking a distant piano. Subdued humming flows out of Pär’s nightly studio into the cold Swedish winter. Across the horizon Robert’s angelic choirs boom. The smell of burnt circuits as he cranks his distortion to the melting point within the deep woods of Pennsylvania.

Tracklist:

01 - What The Earth Bore
02 - The Dead Fire
03 - Burrows
04 - Echo
05 - In An Arched World
06 - Omission
07 - Eschatology
08 - Drawn Like A Moth
09 - All Dreams Mined

Written, Produced & Performed by:
Apocryphos - Robert Kozletsky
Kammarheit - Pär Boström
Atrium Carceri - Simon Heath

Analyzed: Apocryphos, Kammarheit, Atrium Carceri / Echo
––––––––––––––––––––––––––––––––––––––––

DR Peak RMS Duration Track
––––––––––––––––––––––––––––––––––––––––
DR9 -2.02 dB -15.99 dB 4:44 01-What The Earth Bore
DR9 -0.20 dB -12.40 dB 6:35 02-The Dead Fire
DR9 -0.20 dB -11.05 dB 5:20 03-Burrows
DR9 -2.09 dB -12.64 dB 5:36 04-Echo
DR8 -0.20 dB -11.16 dB 6:39 05-In An Arched World
DR9 -0.20 dB -10.50 dB 5:14 06-Omission
DR9 -0.20 dB -11.21 dB 6:01 07-Eschatology
DR8 -0.20 dB -10.15 dB 7:21 08-Drawn Like A Moth
DR7 -0.20 dB -8.32 dB 6:46 09-All Dreams Mined
––––––––––––––––––––––––––––––––––––––––

Number of tracks: 9
Official DR value: DR8

Samplerate: 44100 Hz
Channels: 2
Bits per sample: 24
Bitrate: 1175 kbps
Codec: FLAC
================================================================================


Thanks to the Original customer!