Tags
Language
Tags

Yes - The Steven Wilson Remixes Vinyl Box Set (2018) [6LP Super Deluxe Edition,180 Gram,DSD128]

Posted By: Discograf_man
Yes - The Steven Wilson Remixes Vinyl Box Set (2018) [6LP Super Deluxe Edition,180 Gram,DSD128]

Yes - The Steven Wilson Remixes Vinyl Box Set (2018) [6LP Super Deluxe Edition,180 Gram,DSD128]
Progressive rock, Art rock | DSD128 (*.dsf, tracks), 1-bit/5.64 MHz
Run Time: 04:00:00 | 19.3 GB + 5% Recovery
Label: Rhino Records | Release Year: 2018

Celebrate The Rock And Roll Hall Of Famer’s 50th Anniversary With A Vinyl Set Featuring Steven Wilson’s Remixes Of Five Classic Albums: The Yes Album, Fragile, Close To The Edge, Relayer And The Double Album, Tales From Topographic Oceans. YES mark their 50th anniversary this year and release YES: THE STEVEN WILSON REMIXES which spotlights five studio albums that helped secure the band’s recent induction into the Rock and Roll Hall of Fame.
YES: THE STEVEN WILSON REMIXES is available now as a five album set. It includes remixed versions of: The Yes Album (1971), Fragile (1971), Close To The Edge (1972), the double album Tales From Topographic Oceans (1973), and Relayer (1974). Each album features remixed audio by Steven Wilson, released on vinyl for the first time.
The record case features artwork created specifically for the set by Roger Dean, whose artwork and trademark calligraphy are synonymous with the band’s identity; two of the albums, Close To The Edge and Tales From Topographic Oceans, have new cover art, while the remaining three covers have been reworked by Dean.
After their initial release in the 1970’s, Wilson’s articulate remix shines a light on the stellar performances that run deep through each of these the albums, from hits like “Roundabout” and “I’ve Seen All Good People,” to album-side length epics like “Close To The Edge” and “The Gates Of Delirium.”
The music included in this collection confirms the band’s standing as the most enduring, ambitious, and virtuosic progressive band in rock history. It also follows the band through a number of personnel changes. Starting in February 1971 with YES’s third studio release, The Yes Album, the band featured vocalist Jon Anderson, bassist Chris Squire, guitarist Steve Howe, keyboardist Tony Kaye and drummer Bill Bruford. Released just nine months later, Fragile was YES’s first release with keyboardist Rick Wakeman. The same line-up returned on 1972’s Close To The Edge. A year later, drummer Alan White made his YES debut on Tales From Topographic Oceans. And finally, keyboardist Patrick Moraz joined for Relayer in 1974.
Yes - The Steven Wilson Remixes Vinyl Box Set (2018) [6LP Super Deluxe Edition,180 Gram,DSD128]

Contents:

The Yes Album (1971)
Fragile (1971)
Close To The Edge (1972)
Tales From Topographic Oceans (1973)
Relayer (1974)

Yes - The Steven Wilson Remixes Vinyl Box Set (2018) [6LP Super Deluxe Edition,180 Gram,DSD128]


Full Tracklist:

LP 1: The Yes Album

Yes - The Steven Wilson Remixes Vinyl Box Set (2018) [6LP Super Deluxe Edition,180 Gram,DSD128]

Tracklist:
1. Yours Is No Disgrace (Steven Wilson Remix)
2. The Clap (Steven Wilson Remix)
3. Starship Trooper (Steven Wilson Remix)
a) Life Seeker (Steven Wilson Remix)
b) Disillusion (Steven Wilson Remix)
c) Wurm (Steven Wilson Remix)
4. I've Seen All Good People (Steven Wilson Remix)
a) Your Move (Steven Wilson Remix)
b) All Good People (Steven Wilson Remix)
5. A Venture (Steven Wilson Remix)
6. Perpetual Change (Steven Wilson Remix)

foobar2000 1.4 / Dynamic Range Meter 1.1.1
log date: 2019-08-09 15:01:40

––––––––––––––––––––––––––––––––––––––––
Analyzed: Yes / The Yes Album
––––––––––––––––––––––––––––––––––––––––

DR Peak RMS Duration Track
––––––––––––––––––––––––––––––––––––––––
DR14 -2.35 dB -19.16 dB 9:45 01-Yours Is No Disgrace
DR16 -2.60 dB -22.17 dB 3:18 02-The Clap
DR13 -0.99 dB -18.03 dB 9:32 03-Starship Trooper (Life Seeker, Disillusion, Wurm)
DR15 -1.07 dB -20.27 dB 7:00 04-I've Seen All Good People (Your Move, All Good People)
DR14 -2.62 dB -20.28 dB 3:31 05-A Venture
DR13 -2.43 dB -18.81 dB 8:56 06-Perpetual Change
––––––––––––––––––––––––––––––––––––––––

Number of tracks: 6
Official DR value: DR14

Samplerate: 5644800 Hz / PCM Samplerate: 88200 Hz
Channels: 2
Bits per sample: 1
Bitrate: 11290 kbps
Codec: DSD128
================================================================================

LP 2: Fragile
Yes - The Steven Wilson Remixes Vinyl Box Set (2018) [6LP Super Deluxe Edition,180 Gram,DSD128]

Tracklist:
1. Roundabout (Steven Wilson Remix)
2. Cans And Brahms (Steven Wilson Remix)
3. We Have Heaven (Steven Wilson Remix)
4. South Side Of The Sky (Steven Wilson Remix)
5. Five Per Cent For Nothing (Steven Wilson Remix)
6. Long Distance Runaround (Steven Wilson Remix)
7. The Fish (Schindleria Praematurus) (Steven Wilson Remix)
8. Mood For A Day (Steven Wilson Remix)
9. Heart Of The Sunrise (Steven Wilson Remix)

foobar2000 1.4 / Dynamic Range Meter 1.1.1
log date: 2019-08-09 14:37:22

––––––––––––––––––––––––––––––––––––––––
Analyzed: Yes / Fragile
––––––––––––––––––––––––––––––––––––––––

DR Peak RMS Duration Track
––––––––––––––––––––––––––––––––––––––––
DR12 -2.55 dB -18.29 dB 8:33 01-Roundabout
DR13 -5.85 dB -24.94 dB 1:39 02-Cans And Brahms (Extracts From Brahms' 4th Symphony In E Minor, Third Movement)
DR12 -3.05 dB -20.54 dB 1:43 03-We Have Heaven
DR13 -3.20 dB -20.66 dB 8:05 04-South Side Of The Sky
DR14 -6.60 dB -23.21 dB 0:39 05-Five Percent For Nothing
DR15 -3.73 dB -21.55 dB 3:24 06-Long Distance Runaround
DR13 -3.68 dB -19.51 dB 2:44 07-The Fish (Shindleria Praematurus)
DR16 -7.40 dB -28.35 dB 2:57 08-Mood For A Day
DR14 -0.28 dB -19.94 dB 11:29 09-Heart Of The Sunrise
––––––––––––––––––––––––––––––––––––––––

Number of tracks: 9
Official DR value: DR14

Samplerate: 5644800 Hz / PCM Samplerate: 88200 Hz
Channels: 2
Bits per sample: 1
Bitrate: 11290 kbps
Codec: DSD128
================================================================================

LP 3: Close To The Edge
Yes - The Steven Wilson Remixes Vinyl Box Set (2018) [6LP Super Deluxe Edition,180 Gram,DSD128]

Tracklist:
1. Close To The Edge (Steven Wilson Remix)
2. And You And I (Steven Wilson Remix)
3. Siberian Khatru (Steven Wilson Remix)

foobar2000 1.4 / Dynamic Range Meter 1.1.1
log date: 2019-08-09 14:32:06

––––––––––––––––––––––––––––––––––––––––
Analyzed: Yes / Close To The Edge
––––––––––––––––––––––––––––––––––––––––

DR Peak RMS Duration Track
––––––––––––––––––––––––––––––––––––––––
DR13 -0.46 dB -18.43 dB 18:44 01-Close To The Edge (The Solid Time Of Change, Total Mass Retain, I Get Up I Get Down, Seasons Of Man)
DR14 -0.14 dB -19.19 dB 10:10 02-And You And I (Cord Of Life, Eclipse, The Preacher The Teacher, The Apocalypse)
DR14 -1.11 dB -17.61 dB 9:01 03-Siberian Khatru
––––––––––––––––––––––––––––––––––––––––

Number of tracks: 3
Official DR value: DR14

Samplerate: 5644800 Hz / PCM Samplerate: 88200 Hz
Channels: 2
Bits per sample: 1
Bitrate: 11290 kbps
Codec: DSD128
================================================================================

LP 4: Tales From Topographic Oceans
Yes - The Steven Wilson Remixes Vinyl Box Set (2018) [6LP Super Deluxe Edition,180 Gram,DSD128]

Tracklist:
LP 1
1. The Revealing Science Of God (Steven Wilson Remix)
2. The Remembering (Steven Wilson Remix)

LP 2
1. The Ancient (Steven Wilson Remix)
2. Ritual (Steven Wilson Remix)

foobar2000 1.4 / Dynamic Range Meter 1.1.1
log date: 2019-08-09 14:51:37

––––––––––––––––––––––––––––––––––––––––
Analyzed: Yes / Tales From Topographic Oceans
––––––––––––––––––––––––––––––––––––––––

DR Peak RMS Duration Track
––––––––––––––––––––––––––––––––––––––––
DR13 -0.50 dB -18.91 dB 20:17 01-The Revealing Science Of God
DR13 -1.97 dB -19.13 dB 20:31 02-The Remembering
DR13 -0.79 dB -19.09 dB 18:40 03-The Ancient
DR13 -2.12 dB -18.47 dB 21:42 04-Ritual
––––––––––––––––––––––––––––––––––––––––

Number of tracks: 4
Official DR value: DR13

Samplerate: 5644800 Hz / PCM Samplerate: 88200 Hz
Channels: 2
Bits per sample: 1
Bitrate: 11290 kbps
Codec: DSD128
================================================================================

LP 5: Relayer
Yes - The Steven Wilson Remixes Vinyl Box Set (2018) [6LP Super Deluxe Edition,180 Gram,DSD128]

Tracklist:
1. Gates of Delirium (Steven Wilson Remix)
2. Sound Chaser (Steven Wilson Remix)
3. To Be Over (Steven Wilson Remix)

foobar2000 1.4 / Dynamic Range Meter 1.1.1
log date: 2019-08-09 14:44:14

––––––––––––––––––––––––––––––––––––––––
Analyzed: Yes / Relayer
––––––––––––––––––––––––––––––––––––––––

DR Peak RMS Duration Track
––––––––––––––––––––––––––––––––––––––––
DR12 -0.94 dB -18.67 dB 21:59 01-The Gates Of Delirium
DR12 -1.93 dB -19.31 dB 9:29 02-Sound Chaser
DR11 -2.33 dB -17.97 dB 9:09 03-To Be Over
––––––––––––––––––––––––––––––––––––––––

Number of tracks: 3
Official DR value: DR12

Samplerate: 5644800 Hz / PCM Samplerate: 88200 Hz
Channels: 2
Bits per sample: 1
Bitrate: 11290 kbps
Codec: DSD128
================================================================================

Thanks to the original releaser!