Leïla Martial & BAA BOX - Warm Canto (2019) [Official Digital Download]

Posted By: SERTiL
Leïla Martial & BAA BOX - Warm Canto (2019) [Official Digital Download]

Leïla Martial & BAA BOX - Warm Canto (2019)
FLAC (tracks) 24-bit/48 kHz | Time - 52:37 minutes | 609 MB
Studio Master, Official Digital Download | Artwork: Front Cover

For this second opus, Leïla takes her two companions on her original imaginary land: A naked and bare land, where the body (the voice) would be the only source where to drink.

BAA BOX opens a new window, a second way at the crossroads of possibilities. To roam the paths of the future, straddling the brush fields and climbing the cultural boundaries that are a priori impassable. And finally meet the Other, in what he has in common and different from himself, in his impenetrable and familiar beauty.

Tracklist:
01. Amuse Bouche (1’35)
02. Nuit Pygmée (6’38)
03. Le sourire du Clown (3’41)
04. La Danse du Clown (I) (4’04)
05. La Danse du Clown (2) (5’00)
06. Forget and be (4’30)
07. Jeanne (4’27)
08. Serendipity (7’34)
09. Warm Canto (3’29)
10. Petit Temps volé (6’48)
11. Solal (1’29)
12. Pieds nus (3’14)

Personnel:
Leïla Martial - Vocals, glockenspiel, senza
Eric Perez - Vocals, guitar, percussions
Pierre Tereygeol - Vocals, guitar

foobar2000 1.3.7 / Dynamic Range Meter 1.1.1
log date: 2019-04-16 10:54:34

––––––––––––––––––––––––––––––––––––––––
Analyzed: Leïla Martial BAA BOX / Warm Canto
––––––––––––––––––––––––––––––––––––––––

DR Peak RMS Duration Track
––––––––––––––––––––––––––––––––––––––––
DR9 -7.01 dB -19.13 dB 1:36 01-Amuse-bouche
DR9 -0.01 dB -14.08 dB 6:40 02-Nuit Pygmée
DR12 -1.00 dB -15.01 dB 3:41 03-Le sourire du clown
DR9 -0.01 dB -12.51 dB 4:05 04-La danse du clown, Pt. 1
DR7 -0.01 dB -11.12 dB 5:03 05-La danse du clown, Pt. 2
DR8 -0.01 dB -12.10 dB 4:31 06-Forget and Be
DR11 -3.20 dB -17.13 dB 4:27 07-Jeanne
DR9 -0.01 dB -12.68 dB 7:36 08-Serendipity
DR12 -1.68 dB -18.07 dB 3:30 09-Warm Canto
DR7 -0.01 dB -11.25 dB 6:50 10-Petit temps volé
DR10 -2.76 dB -19.20 dB 1:30 11-Solal
DR11 -0.02 dB -14.74 dB 3:15 12-Pieds nus
––––––––––––––––––––––––––––––––––––––––

Number of tracks: 12
Official DR value: DR9

Samplerate: 48000 Hz
Channels: 2
Bits per sample: 24
Bitrate: 1433 kbps
Codec: FLAC
================================================================================


Thanks to the Original customer.