VA - The Turning (Original Motion Picture Soundtrack) (2020) [Official Digital Download]

Posted By: Pisulik
VA - The Turning (Original Motion Picture Soundtrack) (2020) [Official Digital Download]

VA - The Turning (Original Motion Picture Soundtrack) (2020)
FLAC (tracks) 24-bit/44.1 kHz | Time - 60:37 minutes | 715 MB
Studio Master, Official Digital Download | Artwork: Front cover

Original Motion Picture Soundtrack (OST) from the film The Turning (2020). The score music was composed by Nathan Barr (Sneaky Pete, The Son, The House with a Clock in Its Walls), the soundtrack album by Various Artists.The Turning is a 2020 supernatural horror drama film based on the novel The Turn of the Screw by Henry James. The film is written by Carey Hayes, Chad Hayes, Jade Bartlett, directed by Floria Sigismondi, stars Mackenzie Davis, Finn Wolfhard, Brooklynn Prince, Joely Richardson, Mark Huberman, Niall Greig Fulton.

Tracklist:

1. Mother – Courtney Love
2. Cop Car – Mitski
3. Feed – Soccer Mommy
4. Kate’s Not Here – girl in red
5. SkindeepSkyhighHeartwide (feat. Pale Waves) – Lawrence Rothman
6. Call Me – Empress Of
7. The Wild – Vagabon
8. Getting Better (otherwise) – The Aubreys
9. Womb – Cherry Glazerr
10. The Brakes – Warpaint
11. Crust (Neverreallyknewyou) – Lawrence Rothman
12. Judas Kiss – Lawrence Rothman & MUNA
13. The Turn – Kali Uchis
14. Sleep It Off – Alice Glass
15. Ouroboros – Dani Miller
16. I Don’t Know – Alison Mosshart
17. Take No Prisoners (feat. Sunflower Bean) – Living Things
18. Crust – Lawrence Rothman
19. Silver – Kim Gordon

foobar2000 1.3.7 / Dynamic Range Meter 1.1.1
log date: 2020-01-28 02:39:25

––––––––––––––––––––––––––––––––––––––––
Analyzed: Alice Glass / The Turning (Original Motion Picture Soundtrack) (1)
Alison Mosshart / The Turning (Original Motion Picture Soundtrack) (2)
Cherry Glazerr / The Turning (Original Motion Picture Soundtrack) (3)
Courtney Love / The Turning (Original Motion Picture Soundtrack) (4)
Dani Miller / The Turning (Original Motion Picture Soundtrack) (5)
Empress Of / The Turning (Original Motion Picture Soundtrack) (6)
girl in red / The Turning (Original Motion Picture Soundtrack) (7)
Kali Uchis / The Turning (Original Motion Picture Soundtrack) (8)
Lawrence Rothman / The Turning (Original Motion Picture Soundtrack) (9-12)
Living Things / The Turning (Original Motion Picture Soundtrack) (13)
Mitski / The Turning (Original Motion Picture Soundtrack) (14)
Soccer Mommy / The Turning (Original Motion Picture Soundtrack) (15)
The Aubreys / The Turning (Original Motion Picture Soundtrack) (16)
Vagabon / The Turning (Original Motion Picture Soundtrack) (17)
Warpaint / The Turning (Original Motion Picture Soundtrack) (18)
––––––––––––––––––––––––––––––––––––––––

DR Peak RMS Duration Track
––––––––––––––––––––––––––––––––––––––––
DR6 -0.10 dB -8.27 dB 2:52 14-Sleep It Off
DR3 -0.10 dB -4.81 dB 2:51 16-I Don't Know
DR3 -0.10 dB -4.60 dB 3:58 09-Womb
DR4 -0.10 dB -5.39 dB 3:18 01-Mother
DR4 -0.10 dB -5.12 dB 3:23 15-Ouroboros
DR5 -0.10 dB -7.01 dB 4:01 06-Call Me
DR4 -0.10 dB -5.33 dB 2:57 04-kate's not here
DR4 -0.10 dB -6.21 dB 3:52 13-The Turn
DR6 -0.10 dB -8.10 dB 4:07 05-SkindeepSkyhighHeartwide
DR6 -0.10 dB -9.91 dB 2:16 11-Crust (neverreallyknewyou)
DR6 -0.10 dB -7.91 dB 4:29 12-Judas Kiss
DR4 -0.05 dB -5.94 dB 2:50 18-Crust
DR4 -0.10 dB -5.43 dB 3:28 17-Take No Prisoners
DR3 -0.10 dB -5.15 dB 3:04 02-Cop Car
DR4 -0.10 dB -6.21 dB 2:44 03-Feed
DR4 -0.10 dB -5.20 dB 2:46 08-Getting Better (otherwise)
DR4 -0.10 dB -6.05 dB 3:01 07-The Wild
DR3 -0.10 dB -5.58 dB 4:39 10-The Brakes
––––––––––––––––––––––––––––––––––––––––

Number of tracks: 18
Official DR value: DR4

Samplerate: 44100 Hz
Channels: 2
Bits per sample: 24
Bitrate: 1618 kbps
Codec: FLAC
================================================================================


All thanks go to the original releaser