Tags
Language
Tags

Roderick Williams - Somervell - Maud & A Shropshire Lad (2020) [Official Digital Download 24/88]

Posted By: pyatak
Roderick Williams - Somervell - Maud & A Shropshire Lad (2020) [Official Digital Download 24/88]

Roderick Williams - Somervell - Maud & A Shropshire Lad (2020) [Official Digital Download 24/88]
FLAC (tracks) 24-bit/88.2 kHz | Front Cover + Booklet | Time - 01:02:12 minutes | 926 MB
Classical, Vocal | Label: SOMM Recordings, Official Digital Download

SOMM Recordings announces an important new recording of two classic English song cycles by Sir Arthur Somervell – Maud and A Shropshire Lad – from the acclaimed partnership of baritone Roderick Williams and pianist Susie Allan.

Hailed as “the English Schumann” for his mastery of song setting, song cycles in particular, Somervell’s music is marked by a distinctive blend of lyricism and harmony that makes itself indelibly felt in these two seminal works of the English song repertoire.

His first cycle, Maud, setting 13 poems from Alfred, Lord Tennyson’s dark monodrama, was first performed in 1899 at the height of a fashion for recitals of songs sung in English. An intense, impassioned portrayal of infatuation, it is marked by remarkably eloquent and revealing relationships between voice and text, and voice and piano.

Composed in 1904, the 10 poems from A.E. Housman’s A Shropshire Lad portray a young man wistfully contemplating nature, life and love at the age of 20 before following him through a life full of incident, the horror of the First World War and growing self-awareness. It prompted from Somervell texturally rich and varied music shot through with an aching lyricism all the more powerful and potent for its folk song-like simplicity and directness.

Completing the recital are the enchanting, ever-popular lullaby Shepherd’s Cradle Song and wistful tale of childhood sweethearts with texts by Edgar Allan Poe, A Kingdom by the Sea. British music authority Jeremy Dibble provides informative booklet notes and Roderick Williams a revealing take on Somervell’s music from a singer’s perspective.

Roderick Williams and Susie Allan’s most recent SOMM releases include Celebrating English Song (SOMMCD 0177), described by MusicWeb International as “an exemplary recital of English song”, and BBC Music Magazine’s “strongly recommended” Severn & Somme (SOMMCD 057) focusing on Ivor Gurney and his peers.

TRACKLIST

Arthur Somervell (1863 - 1937): Maud:

1. Roderick Williams & Susie Allan - Maud: No. 1, I Hate the Dreadful Hollow
2. Roderick Williams & Susie Allan - Maud: No. 2, A Voice by the Cedar Tree
3. Roderick Williams & Susie Allan - Maud: No. 3, She Came to the Village Church
4. Roderick Williams & Susie Allan - Maud: No. 4, O Let the Solid Ground
5. Roderick Williams & Susie Allan - Maud: No. 5, Birds in the High Hall Garden
6. Roderick Williams & Susie Allan - Maud: No. 6, Maud Has a Garden
7. Roderick Williams & Susie Allan - Maud: No. 7, Go Not, Happy Day
8. Roderick Williams & Susie Allan - Maud: No. 8, I Have Led Her Home
9. Roderick Williams & Susie Allan - Maud: No. 9, Come Into the Garden, Maud
10. Roderick Williams & Susie Allan - Maud: No. 10, The Fault Was Mine
11. Roderick Williams & Susie Allan - Maud: No. 11, Dead, Long Dead
12. Roderick Williams & Susie Allan - Maud: No. 12, O That 'Twere Possible
13. Roderick Williams & Susie Allan - Maud: No. 13, My Life Has Crept so Long

Arthur Somervell:

14. Roderick Williams & Susie Allan - A Kingdom by the Sea

A Shropshire Lad:

15. Roderick Williams & Susie Allan - A Shropshire Lad: No. 1, Loveliest of Trees
16. Roderick Williams & Susie Allan - A Shropshire Lad: No. 2, When I Was One-and-Twenty
17. Roderick Williams & Susie Allan - A Shropshire Lad: No. 3, There Pass the Careless People
18. Roderick Williams & Susie Allan - A Shropshire Lad: No. 4, In Summer-Time on Bredon
19. Roderick Williams & Susie Allan - A Shropshire Lad: No. 5, The Street Sounds to a Soldier's Tread
20. Roderick Williams & Susie Allan - A Shropshire Lad: No. 6, On the Idle Hill of Summer
21. Roderick Williams & Susie Allan - A Shropshire Lad: No. 7, White in the Moon the Long Road Lies
22. Roderick Williams & Susie Allan - A Shropshire Lad: No. 8, Think No More, Lad
23. Roderick Williams & Susie Allan - A Shropshire Lad: No. 9, Into My Heart an Air That Kills
24. Roderick Williams & Susie Allan - A Shropshire Lad: No. 10, The Lads in Their Hundreds, to Ludlow Come In for the Fair

Arthur Somervell:

25. Roderick Williams & Susie Allan - Shepherd's Cradle Song

foobar2000 1.3.16 / Dynamic Range Meter 1.1.1
log date: 2020-05-18 23:04:59

––––––––––––––––––––––––––––––––––––––––
Analyzed: Roderick Williams & Susie Allan / Somervell: Maud & A Shropshire Lad
––––––––––––––––––––––––––––––––––––––––

DR Peak RMS Duration Track
––––––––––––––––––––––––––––––––––––––––
DR12 -0.97 dB -21.49 dB 1:45 01-Maud: No. 1, I Hate the Dreadful Hollow
DR16 -0.52 dB -23.13 dB 4:00 02-Maud: No. 2, A Voice by the Cedar Tree
DR13 -12.93 dB -31.20 dB 1:24 03-Maud: No. 3, She Came to the Village Church
DR12 -0.82 dB -18.92 dB 1:08 04-Maud: No. 4, O Let the Solid Ground
DR14 -7.80 dB -28.37 dB 2:41 05-Maud: No. 5, Birds in the High Hall Garden
DR14 -4.93 dB -23.95 dB 1:43 06-Maud: No. 6, Maud Has a Garden
DR13 -5.98 dB -23.02 dB 1:35 07-Maud: No. 7, Go Not, Happy Day
DR15 -7.10 dB -27.89 dB 2:35 08-Maud: No. 8, I Have Led Her Home
DR13 -0.41 dB -20.83 dB 3:28 09-Maud: No. 9, Come Into the Garden, Maud
DR16 -2.57 dB -25.56 dB 3:41 10-Maud: No. 10, The Fault Was Mine
DR15 -0.10 dB -21.57 dB 4:08 11-Maud: No. 11, Dead, Long Dead
DR12 -10.86 dB -30.10 dB 1:46 12-Maud: No. 12, O That 'Twere Possible
DR14 -2.02 dB -21.88 dB 5:13 13-Maud: No. 13, My Life Has Crept so Long
DR15 -5.43 dB -26.86 dB 3:37 14-A Kingdom by the Sea
DR11 -10.81 dB -28.75 dB 1:52 15-A Shropshire Lad: No. 1, Loveliest of Trees
DR14 -4.02 dB -25.80 dB 1:10 16-A Shropshire Lad: No. 2, When I Was One-and-Twenty
DR12 -4.29 dB -25.53 dB 1:25 17-A Shropshire Lad: No. 3, There Pass the Careless People
DR14 -5.09 dB -23.68 dB 3:12 18-A Shropshire Lad: No. 4, In Summer-Time on Bredon
DR13 -1.93 dB -20.20 dB 2:01 19-A Shropshire Lad: No. 5, The Street Sounds to a Soldier's Tread
DR12 -2.91 dB -22.19 dB 2:24 20-A Shropshire Lad: No. 6, On the Idle Hill of Summer
DR14 -4.25 dB -27.31 dB 2:56 21-A Shropshire Lad: No. 7, White in the Moon the Long Road Lies
DR14 -2.84 dB -21.33 dB 1:44 22-A Shropshire Lad: No. 8, Think No More, Lad
DR11 -12.58 dB -31.43 dB 1:38 23-A Shropshire Lad: No. 9, Into My Heart an Air That Kills
DR14 -3.56 dB -23.12 dB 2:45 24-A Shropshire Lad: No. 10, The Lads in Their Hundreds, to Ludlow Come In for the Fair
DR14 -9.84 dB -29.24 dB 2:35 25-Shepherd's Cradle Song
––––––––––––––––––––––––––––––––––––––––

Number of tracks: 25
Official DR value: DR14

Samplerate: 88200 Hz
Channels: 2
Bits per sample: 24
Bitrate: 1992 kbps
Codec: FLAC
================================================================================



Thanks to the Original customer.