Peter Jay Jordan - Trap Hybrids (2021) [Official Digital Download]

Posted By: pyatak
Peter Jay Jordan - Trap Hybrids (2021) [Official Digital Download]

Peter Jay Jordan - Trap Hybrids (2021) [Official Digital Download]
FLAC (tracks) 24-bit/48 kHz | Front Cover | Time - 36:21 minutes | 467 MB
Classical | Label: Sonoton Music, Official Digital Download

Peter Jay Jordan released his new album Trap Hybrids on June 11 via Sonoton Music.

TRACKLIST

01. Peter Jay Jordan - Trapped in Grooves
02. Peter Jay Jordan - On the Border
03. Peter Jay Jordan - Bad Guy
04. Peter Jay Jordan - Guitar Power
05. Peter Jay Jordan - Trap Meets Rock
06. Peter Jay Jordan - Explore the World
07. Peter Jay Jordan - Cowboys Stomp
08. Peter Jay Jordan - At Sundown
09. Peter Jay Jordan - Independent
10. Peter Jay Jordan - Porch Talk
11. Peter Jay Jordan - Metal Power

foobar2000 1.6.2 / Dynamic Range Meter 1.1.1
log date: 2021-06-13 18:46:26

––––––––––––––––––––––––––––––––––––––––
Analyzed: Peter Jay Jordan / Trap Hybrids
––––––––––––––––––––––––––––––––––––––––

DR Peak RMS Duration Track
––––––––––––––––––––––––––––––––––––––––
DR5 -0.32 dB -7.44 dB 2:53 01-Trapped in Grooves
DR3 -0.32 dB -5.36 dB 3:39 02-On the Border
DR5 -0.32 dB -6.09 dB 3:12 03-Bad Guy
DR4 -0.32 dB -6.17 dB 3:23 04-Guitar Power
DR4 -0.32 dB -5.79 dB 3:30 05-Trap Meets Rock
DR5 -0.32 dB -6.38 dB 3:45 06-Explore the World
DR6 -0.32 dB -8.18 dB 3:12 07-Cowboys Stomp
DR5 -0.32 dB -6.10 dB 2:59 08-At Sundown
DR5 -0.32 dB -6.06 dB 3:27 09-Independent
DR4 -0.32 dB -5.83 dB 3:11 10-Porch Talk
DR4 -0.32 dB -5.59 dB 3:10 11-Metal Power
––––––––––––––––––––––––––––––––––––––––

Number of tracks: 11
Official DR value: DR5

Samplerate: 48000 Hz
Channels: 2
Bits per sample: 24
Bitrate: 1871 kbps
Codec: FLAC
================================================================================



Thanks to the Original customer.