Paul Green, Two Worlds - A Bissel Rhythm (2019) [Official Digital Download]

Posted By: pyatak
Paul Green, Two Worlds - A Bissel Rhythm (2019) [Official Digital Download]

Paul Green, Two Worlds - A Bissel Rhythm (2019) [Official Digital Download]
FLAC (tracks) 24-bit/48 kHz | Front Cover | Time - 46:03 minutes | 509 MB
Jazz | Label: Big Round Records, Official Digital Download

In an attempt to unite to very different worlds, Jewish music and jazz, Paul Green brings us Music Coming Together. Virtuoso clarinetist Paul Green has arranged all of the pieces on this album to be performed by Two Worlds. Jazz music, although more obviously improvisational, draws some similarities to klezmer music. Green seamlessly melds the two together to form the inventive arrangements on this album.

TRACKLIST

01. A Bissel Rhythm
02. Zoey's Chosidl
03. My Own Freilach
04. Doina and Ramble
05. Prelude to the Blues
06. Joe's Hurra
07. The Jewish March
08. Lisa's Song

foobar2000 1.3.16 / Dynamic Range Meter 1.1.1
log date: 2019-02-11 21:59:40

––––––––––––––––––––––––––––––––––––––––
Analyzed: Paul Green, Two Worlds / A Bissel Rhythm
––––––––––––––––––––––––––––––––––––––––

DR Peak RMS Duration Track
––––––––––––––––––––––––––––––––––––––––
DR9 -0.50 dB -11.15 dB 6:20 01-A Bissel Rhythm
DR12 -0.50 dB -15.14 dB 5:58 02-Zoey's Chosidl
DR9 -0.50 dB -11.76 dB 4:20 03-My Own Freilach
DR12 -0.50 dB -15.16 dB 7:09 04-Doina and Ramble
DR11 -0.50 dB -14.69 dB 7:44 05-Prelude to the Blues
DR13 -0.50 dB -15.97 dB 4:24 06-Joe's Hurra
DR10 -0.50 dB -12.67 dB 4:34 07-The Jewish March
DR8 -0.50 dB -11.02 dB 5:34 08-Lisa's Song
––––––––––––––––––––––––––––––––––––––––

Number of tracks: 8
Official DR value: DR10

Samplerate: 48000 Hz
Channels: 2
Bits per sample: 24
Bitrate: 1634 kbps
Codec: FLAC
================================================================================



Thanks to the Original customer.