Pat Bianchi - In the Moment (2018) [Official Digital Download]

Posted By: Pisulik
Pat Bianchi - In the Moment (2018) [Official Digital Download]

Pat Bianchi - In the Moment (2018)
FLAC (tracks) 24-bit/44.1 kHz | Time - 59:48 minutes | 677 MB
Studio Master, Official Digital Download | Artwork: Digital Booklet

Capable of everything from vibrato-laden intimate murmurings to sermonizing at a roaring volume, the jazz organ can sometimes be strangely dispiriting - like being stuck at a bar with a non-stop talker. Pat Bianchi will have none of that, eschewing all the clichés and displaying the instrument's versatility with a set list that ranges from Chick Corea to Patsy Cline to Monk and Billy Eckstine. For this, Bianchi's first recording on Savant, the leader has brought along a number of friends and colleagues including Pat Martino, Joe Locke, Carmen Intorre, Jr. the late, lamented Kevin Mahogany and others making for an extra-special debut recording.

Tracklist:

01. Humpty Dumpty
02. Blue Gardenia (feat. Peter Bernstein)
03. Don't You Worry 'Bout a Thing
04. Mr. PM (feat. Pat Martino)
05. Barracudas (General Assembly)
06. Crazy
07. No Expectations
08. I Want to Talk About You (feat. Kevin Mahogany)
09. Fall
10. Four in One

Personnel:

Pat Bianchi - organ
Paul Bollenback - guitar
Byron Landham - drums
With special guests:
Peter Bernstein - guitar
Carmen Intorre, Jr - drums
Joe Locke - vibes
Kevin Mahogany - vocal
Pat Martino - guitar

foobar2000 1.3.7 / Dynamic Range Meter 1.1.1
log date: 2018-11-08 21:13:44

––––––––––––––––––––––––––––––––––––––––
Analyzed: Pat Bianchi / In the Moment
––––––––––––––––––––––––––––––––––––––––

DR Peak RMS Duration Track
––––––––––––––––––––––––––––––––––––––––
DR13 -0.58 dB -15.30 dB 3:44 01-Humpty Dumpty
DR13 -0.67 dB -16.57 dB 7:21 02-Blue Gardenia (feat Peter Bernstein)
DR12 -0.59 dB -16.34 dB 7:29 03-Don't You Worry 'Bout a Thing
DR11 -1.62 dB -14.84 dB 3:46 04-Mr PM (feat Pat Martino)
DR11 -0.50 dB -15.34 dB 7:52 05-Barracudas (General Assembly)
DR11 -0.47 dB -13.23 dB 5:26 06-Crazy
DR12 -0.49 dB -15.43 dB 6:52 07-No Expectations
DR11 -0.46 dB -15.80 dB 5:43 08-I Want to Talk About You (feat Kevin Mahogany)
DR11 -0.49 dB -14.89 dB 7:12 09-Fall
DR11 -0.49 dB -13.41 dB 4:30 10-Four in One
––––––––––––––––––––––––––––––––––––––––

Number of tracks: 10
Official DR value: DR12

Samplerate: 44100 Hz
Channels: 2
Bits per sample: 24
Bitrate: 1640 kbps
Codec: FLAC
================================================================================


All thanks go to the original releaser