Alain Lefèvre, Hélène Mercier - Mathieu: Concerto de Québec & Works for 2 Pianos (2020) [Official Digital Download 24/96]

Posted By: SERTiL
Alain Lefèvre, Hélène Mercier - Mathieu: Concerto de Québec & Works for 2 Pianos (2020) [Official Digital Download 24/96]

Alain Lefèvre, Hélène Mercier - Mathieu: Concerto de Québec & Works for 2 Pianos (2020)
FLAC (tracks) 24-bit/96 kHz | Time - 65;24 minutes | 1.01 GB
Studio Master, Official Digital Download | Artwork: Digital Booklet

Canadian pianist Alain Lefèvre has long championed the music of pianist-composer André Mathieu (1929-1968). As a child prodigy, Mathieu caused a sensation as ‘the Canadian Mozart’ in New York and Paris (where he studied with Yves Nat and Arthur Honegger), but he eventually died in poverty at the age of just 39. On this album, Lefèvre and fellow pianist Hélène Mercier play three works written by Mathieu in the 1940s. “André Mathieu’s music it has its own place in the history of composition,” says Lefèvre. “It has been described as Romantic, and obviously was out of step with its own age, but does that really matter today?”

Tracklist:
1. Mathieu / Arr. Wastor: Rhapsodie romantique (20:28)
2. Mathieu / Arr. Wastor: Concertino No. 2, Op. 13: I. Allegro (3:18)
3. Mathieu / Arr. Wastor: Concertino No. 2, Op. 13: II. Andante (5:43)
4. Mathieu / Arr. Wastor: Concertino No. 2, Op. 13: III. Mathieu / Arr. Wastor: Concertino No. 2: II. Allegro (4:26)
5. Mathieu / Arr. Wastor: Concerto No. 3 in C Minor, "Concerto de Québec", Op. 25: I. Allegro moderato (10:10)
6. Mathieu / Arr. Wastor: Concerto No. 3 in C Minor, "Concerto de Québec", Op. 25: II. Andante (13:36)
7. Mathieu / Arr. Wastor: Concerto No. 3 in C Minor, "Concerto de Québec", Op. 25: III. Allegro con brio (7:48)

foobar2000 1.3.7 / Dynamic Range Meter 1.1.1
log date: 2020-02-14 12:19:10

––––––––––––––––––––––––––––––––––––––––
Analyzed: Alain Lefèvre / Mathieu: Concerto de Québec & Works for 2 Pianos
––––––––––––––––––––––––––––––––––––––––

DR Peak RMS Duration Track
––––––––––––––––––––––––––––––––––––––––
DR14 -0.06 dB -19.47 dB 20:28 01-Rhapsodie romantique (Arr. Wastor for 2 Pianos)
DR15 -0.07 dB -19.46 dB 3:18 02-Concertino No. 2, Op. 13: I. Allegro (Arr. Wastor for 2 Pianos)
DR16 -3.40 dB -25.77 dB 5:43 03-Concertino No. 2, Op. 13: II. Andante (Arr. Wastor for 2 Pianos)
DR13 -0.08 dB -17.16 dB 4:26 04-Concertino No. 2, Op. 13: III. Allegro (Arr. Wastor for 2 Pianos)
DR14 -0.79 dB -19.07 dB 10:10 05-Concerto No. 3 in C Minor, "Concerto de Québec", Op. 25: I. Allegro moderato (Arr. Wastor for 2 Pianos)
DR14 -3.02 dB -22.24 dB 13:36 06-Concerto No. 3 in C Minor, "Concerto de Québec", Op. 25: II. Andante (Arr. Wastor for 2 Pianos)
DR13 -0.10 dB -18.69 dB 7:48 07-Concerto No. 3 in C Minor, "Concerto de Québec", Op. 25: III. Allegro con brio (Arr. Wastor for 2 Pianos)
––––––––––––––––––––––––––––––––––––––––

Number of tracks: 7
Official DR value: DR14

Samplerate: 96000 Hz
Channels: 2
Bits per sample: 24
Bitrate: 2191 kbps
Codec: FLAC
================================================================================


Thanks to the Original customer.