Malia - Ripples (Echoes of Dreams) (2018) [Official Digital Download]

Posted By: SERTiL
Malia - Ripples (Echoes of Dreams) (2018) [Official Digital Download]

Malia - Ripples (Echoes of Dreams) (2018)
FLAC (tracks) 24-bit/44.1 kHz | Time - 44:36 minutes | 452 MB
Studio Master, Official Digital Download | Artwork: Front Cover

Ripples (Echoes of Dreams)" shows another perspective on Malia's album "Echoes of Dreams" - it's not a remake in the usual sense, but a highly emotional commitment of the British-African musician to her roots, coupled with the experience from the previous albums.

Maybe you can't hold on to a dream, but dreams can trigger strong emotional cross-currents. And so it was for singer Malia on her popular, long-lived "Echoes of Dreams". Released in 2004, the songs on that album form the basis for her new recording, "Ripples". It is not a remake in the normal sense; rather, these emotive ebbs and flows are direct links to this British-African artist's highly emotional acknowledgement of her roots. Accompanied by pianist Alexandre Saada's sensitive play and his arrangements for the string trio, Malia has radically stripped down her original work, moving from the playful pop-jazz style of her earlier career towards a raw, blues and soul-drenched sound that, more than ever, relies on the strength and passion of her voice.

Malia reflects on the motivations behind once again sounding the echoes of her dreams: "Sometimes life gives you a chance to realign. I feel that I often have a better understanding of my lyrics today than when I wrote them. With the experiences I've lived through, including the hard times, I've had a strong inner desire to re-work the songs."

After six stylishly eclectic albums, Malia's re-worked songs on "Ripples" reveal an artist who lays down new challenges for her listeners. At the same time, there's the dividend of the album's poignant authenticity. Whereas the "Echos of Dreams" sessions were distinguished by the desire to experiment with soulful vocal parts, whiffs of jazz, and rock-tinged rhythms, Malia has reversed course on "Ripples". Recording the album in pianist Alexandre Saada's Paris home, Malia emphasizes, "I wanted to tone everything down in order to push the essential core of the pieces into the foreground."

Tracklist:
1. Unfastened 03:16
2. Maddy 02:34
3. Little Darling 03:28
4. After the Love 02:37
5. Echoes of Dreams 04:06
6. Little Bee 04:03
7. Little Sparrow 02:46
8. Mary Mary 05:00
9. My Love 03:57
10. Unfolding 04:56
11. Man in Your Eyes 03:55
12. I Miss You 03:58

Personnel:
Malia, vocals
Alexandre Saada, piano
Sylvain Chapstick, viola
Bruno Duckte, vello
Mwezi, vocals (on Imagine)

foobar2000 1.3.7 / Dynamic Range Meter 1.1.1
log date: 2019-04-16 13:05:12

––––––––––––––––––––––––––––––––––––––––
Analyzed: Malia / Ripples (Echoes of Dreams)
––––––––––––––––––––––––––––––––––––––––

DR Peak RMS Duration Track
––––––––––––––––––––––––––––––––––––––––
DR9 -1.12 dB -14.10 dB 3:17 01-Unfastened
DR10 -1.12 dB -12.55 dB 2:34 02-Maddy
DR9 -1.12 dB -13.00 dB 3:28 03-Little Darling
DR9 -1.12 dB -12.36 dB 2:38 04-After the Love
DR10 -1.12 dB -14.91 dB 4:07 05-Echoes of Dreams
DR9 -1.12 dB -13.32 dB 4:04 06-Little Bee
DR10 -1.12 dB -13.47 dB 2:46 07-Little Sparrow
DR11 -1.12 dB -15.50 dB 5:00 08-Mary Mary
DR10 -1.12 dB -14.20 dB 3:58 09-My Love
DR11 -1.12 dB -14.57 dB 4:56 10-Unfolding
DR10 -1.12 dB -13.73 dB 3:56 11-Man in Your Eyes
DR9 -1.12 dB -13.96 dB 3:59 12-I Miss You
––––––––––––––––––––––––––––––––––––––––

Number of tracks: 12
Official DR value: DR10

Samplerate: 44100 Hz
Channels: 2
Bits per sample: 24
Bitrate: 1401 kbps
Codec: FLAC
================================================================================


Thanks to the Original customer.