Lester Young - Blue Lester (1956) [Official Digital Download]

Posted By: pyatak
Lester Young - Blue Lester (1956) [Official Digital Download]

Lester Young - Blue Lester (1956) [fficial Digital Download]
FLAC (tracks) 24-bit/44.1 kHz | Front Cover | Time - 44:24 minutes | 360 MB
Jazz | Label: Archive of Folk & Jazz Music, Official Digital Download

Lester Willis Young (August 27, 1909 – March 15, 1959), nicknamed "Pres" or "Prez", was an American jazz tenor saxophonist and occasional clarinetist.

Coming to prominence while a member of Count Basie's orchestra, Young was one of the most influential players on his instrument. In contrast to many of his hard-driving peers, Young played with a relaxed, cool tone and used sophisticated harmonies, using what one critic called "a free-floating style, wheeling and diving like a gull, banking with low, funky riffs that pleased dancers and listeners alike".

Known for his hip, introverted style, he invented or popularized much of the hipster jargon which came to be associated with the music.

TRACKLIST

1. Lester Young - Indiana
2. Lester Young - Blue Lester
3. Lester Young - Jump, Lester, Jump
4. Lester Young - Ghost of a Chance
5. Lester Young - Basie English
6. Lester Young - These Foolish Things Remind Me of You
7. Lester Young - Exercise in Swing
8. Lester Young - Salute to Fats
9. Lester Young - Crazy over J-Z
10. Lester Young - Blues n Bells
11. Lester Young - Ding Dong
12. Lester Young - June Bug
13. Lester Young - Circus in Rhythm
14. Lester Young - Poor Little Plaything
15. Lester Young - Tush

foobar2000 1.6.2 / Dynamic Range Meter 1.1.1
log date: 2021-06-13 20:23:22

––––––––––––––––––––––––––––––––––––––––
Analyzed: Lester Young / Blue Lester
––––––––––––––––––––––––––––––––––––––––

DR Peak RMS Duration Track
––––––––––––––––––––––––––––––––––––––––
DR11 -1.25 dB -13.60 dB 2:54 01-Indiana
DR11 -1.97 dB -15.23 dB 3:22 02-Blue Lester
DR11 -1.25 dB -13.30 dB 3:15 03-Jump, Lester, Jump
DR11 -1.24 dB -13.51 dB 3:19 04-Ghost of a Chance
DR9 -1.24 dB -12.14 dB 2:59 05-Basie English
DR11 -2.14 dB -15.26 dB 2:57 06-These Foolish Things Remind Me of You
DR10 -1.24 dB -13.18 dB 3:09 07-Exercise in Swing
DR11 -1.24 dB -14.61 dB 3:22 08-Salute to Fats
DR14 -1.24 dB -16.51 dB 2:46 09-Crazy over J-Z
DR11 -1.24 dB -14.16 dB 2:21 10-Blues n Bells
DR11 -1.24 dB -14.23 dB 2:24 11-Ding Dong
DR12 -1.24 dB -14.90 dB 2:35 12-June Bug
DR9 -1.24 dB -11.06 dB 3:12 13-Circus in Rhythm
DR10 -1.26 dB -13.56 dB 2:56 14-Poor Little Plaything
DR9 -1.24 dB -11.03 dB 3:01 15-Tush
––––––––––––––––––––––––––––––––––––––––

Number of tracks: 15
Official DR value: DR11

Samplerate: 44100 Hz
Channels: 2
Bits per sample: 24
Bitrate: 1208 kbps
Codec: FLAC
================================================================================



Thanks to the Original customer.