Kris Barras Band - Light It Up (2019) [Official Digital Download]

Posted By: Pisulik
Kris Barras Band - Light It Up (2019) [Official Digital Download]

Kris Barras Band - Light It Up (2019)
FLAC (tracks) 24-bit/44.1 kHz | Time - 46:49 minutes | 565 MB
Studio Master, Official Digital Download | Artwork: Front cover

On Friday September 13, 2019, the Kris Barras Band will release their new album Light It Up, via Mascot Label Group/Provogue. Over the last 18 months the Kris Barras Band have become one of the hottest and fastest rising rock acts in the UK. He had stopped as an MMA fighter and self-released his 2016 debut album, he was playing pub venues to 20-50 people playing ZZ Top covers amongst originals, did a handful of blues festivals, played London only twice (as a support artist) and his aim was to get played on Planet Rock Radio. He was close to giving up on music, the next album was his one last shot. 'The Divine And Dirty' was released on Provogue on 23 March 2018. Then the ball started rolling. The Kris Barras Band have played 4 UK headline tours, supported Beth Hart, Joanne Shaw Taylor, and this led to slots with GUN, King King, The Magpie Salute and Therapy? plus Jonny Lang & Walter Trout on Provogue's Rockin' The Blues festival tour. After winning Planet Rock's Best New Band Award, Kris was invited to becoming a special guest presenter for 2 shows. If this wasn’t enough, Kris also joined Supersonic Blues Machine as lead singer/guitarist in July 2018 and toured Europe with the band and Billy F Gibbons! He features on the upcoming 'Road Chronicles: Live' album. Kris Barras - from MMA fighter to hottest rising rock act in the UK. From "wanting to be played" on radio to being a presenter. From playing ZZ Top songs in a pub to actually being in a band with Billy F Gibbons. The future for the Kris Barras Band looks very exciting!

Tracklist:

1. What You Get
2. Broken Teeth
3. Vegas Son
4. Ignite (Light It Up)
5. 6AM
6. Rain
7. Counterfeit People
8. Let The River Run
9. Bullet
10. Wound Up
11. What A Way To Go
12. Not Fading
13. Pride Is Forever

foobar2000 1.3.7 / Dynamic Range Meter 1.1.1
log date: 2019-09-11 14:11:37

––––––––––––––––––––––––––––––––––––––––
Analyzed: Kris Barras Band / Light It Up
––––––––––––––––––––––––––––––––––––––––

DR Peak RMS Duration Track
––––––––––––––––––––––––––––––––––––––––
DR7 0.00 dB -8.50 dB 3:26 01-What You Get
DR6 0.00 dB -8.04 dB 3:42 02-Broken Teeth
DR7 0.00 dB -8.96 dB 3:42 03-Vegas Son
DR7 0.00 dB -8.61 dB 3:16 04-Ignite (Light It Up)
DR7 0.00 dB -8.49 dB 3:46 05-6AM
DR8 0.00 dB -10.14 dB 3:59 06-Rain
DR7 0.00 dB -8.19 dB 3:29 07-Counterfeit People
DR8 0.00 dB -10.24 dB 3:45 08-Let The River Run
DR6 0.00 dB -8.85 dB 3:29 09-Bullet
DR7 0.00 dB -9.07 dB 3:16 10-Wound Up
DR6 0.00 dB -8.12 dB 3:18 11-What A Way To Go
DR6 0.00 dB -7.71 dB 3:43 12-Not Fading
DR7 0.00 dB -10.24 dB 4:03 13-Pride Is Forever
––––––––––––––––––––––––––––––––––––––––

Number of tracks: 13
Official DR value: DR7

Samplerate: 44100 Hz
Channels: 2
Bits per sample: 24
Bitrate: 1590 kbps
Codec: FLAC
================================================================================


All thanks go to the original releaser