Freddie Mercury - Mr Bad Guy (Special Edition) (2019) [Official Digital Download 24/48]

Posted By: SERTiL
Freddie Mercury - Mr Bad Guy (Special Edition) (2019) [Official Digital Download 24/48]

Freddie Mercury - Mr Bad Guy (Special Edition) (2019)
FLAC (tracks) 24-bit/48 kHz | Time - 40:41 minutes | 545 MB
Studio Master, Official Digital Download | Artwork: Front Cover

For this 2019 ‘special edition’ of the “Mr Bad Guy” album, sound team Justin Shirley-Smith, Joshua J Macrae and Kris Fredriksson have taken the very best original source material available. They went back not to previously remastered and mixed tapes, but to the original source multi-track tapes, so that they could build a new mix true to Freddie’s original versions, now taking advantage of the time, resources and technology that Freddie may not have originally had available to him in the 1980s. All offer ultimate quality, first generation vocals showing off Freddie’s incredible vocal range.

Tracklist:
1. Let's Turn It On (Special Edition) (03:42)
2. Made In Heaven (Special Edition) (04:07)
3. I Was Born To Love You (Special Edition) (03:39)
4. Foolin' Around (Special Edition) (03:30)
5. Your Kind Of Lover (Special Edition) (03:35)
6. Mr. Bad Guy (Special Edition) (04:10)
7. Man Made Paradise (Special Edition) (04:10)
8. There Must Be More To Life Than This (Special Edition) (03:02)
9. Living On My Own (Special Edition) (03:24)
10. My Love Is Dangerous (Special Edition) (03:44)
11. Love Me Like There's No Tomorrow (Special Edition) (03:45)

foobar2000 1.3.7 / Dynamic Range Meter 1.1.1
log date: 2019-10-09 19:19:54

––––––––––––––––––––––––––––––––––––––––
Analyzed: Freddie Mercury / Mr Bad Guy (Special Edition)
––––––––––––––––––––––––––––––––––––––––

DR Peak RMS Duration Track
––––––––––––––––––––––––––––––––––––––––
DR8 -0.09 dB -9.26 dB 3:42 01-Let's Turn It On (Special Edition)
DR7 -0.06 dB -8.72 dB 4:07 02-Made In Heaven (Special Edition)
DR7 -0.09 dB -8.72 dB 3:39 03-I Was Born To Love You (Special Edition)
DR9 -0.06 dB -10.30 dB 3:30 04-Foolin' Around (Special Edition)
DR8 -0.10 dB -10.22 dB 3:35 05-Your Kind Of Lover (Special Edition)
DR8 -0.09 dB -10.58 dB 4:10 06-Mr. Bad Guy (Special Edition)
DR8 -0.09 dB -9.26 dB 4:10 07-Man Made Paradise (Special Edition)
DR7 -0.10 dB -9.98 dB 3:02 08-There Must Be More To Life Than This (Special Edition)
DR8 -0.09 dB -9.96 dB 3:24 09-Living On My Own (Special Edition)
DR7 -0.09 dB -9.22 dB 3:44 10-My Love Is Dangerous (Special Edition)
DR7 -0.09 dB -9.07 dB 3:45 11-Love Me Like There's No Tomorrow (Special Edition)
––––––––––––––––––––––––––––––––––––––––

Number of tracks: 11
Official DR value: DR8

Samplerate: 48000 Hz
Channels: 2
Bits per sample: 24
Bitrate: 1882 kbps
Codec: FLAC
================================================================================


Thanks to the Original customer.