Connie Han - Iron Starlet (2020) [Official Digital Download 24/96]

Posted By: pyatak
Connie Han - Iron Starlet (2020) [Official Digital Download 24/96]

Connie Han - Iron Starlet (2020) [Official Digital Download 24/96]
FLAC (tracks) 24-bit/96 kHz | Front Cover | Time - 01:03:00 minutes | 1,24 GB
Jazz | Label: Mack Avenue Records, Official Digital Download

As the title makes vividly clear, Connie Han’s career may be in the early stages of what promises to be a vertiginous climb, but the 23-year-old pianist and composer is no wide-eyed aspirant, timidly searching for her place in the crowded jazz landscape. One listen to Iron Starlet is ample evidence that she’s every bit an armor-clad talent as the name implies. Her powerful vision takes in the full evolution of her forebearers, from iconic innovators like McCoy Tyner and Hank Jones through the Young Lion revolution spearheaded by the Marsalis Brothers, Kenny Kirkland and Jeff “Tain” Watts, among others.

The toughness at the core of Iron Starlet is rooted in its rhythmic drive, anchored by the trio of Han, bassist Ivan Taylor and drummer/producer Bill Wysaske. They’re joined by the stellar frontline of saxophonist Walter Smith III (returning from Crime Zone) and trumpeter Jeremy Pelt, an ideal pairing to realize the compelling blend of sophistication and grit that Han imbues into every piece.

TRACKLIST

1. Connie Han - Iron Starlet
2. Connie Han - Nova
3. Connie Han - Mr. Dominator
4. Connie Han - For the O.G.
5. Connie Han - Hello to the Wind
6. Connie Han - Detour Ahead
7. Connie Han - Captain’s Song
8. Connie Han - Boy Toy
9. Connie Han - The Forsaken
10. Connie Han - Dark Chambers

foobar2000 1.3.16 / Dynamic Range Meter 1.1.1
log date: 2020-04-08 16:16:22

––––––––––––––––––––––––––––––––––––––––
Analyzed: Connie Han / Iron Starlet
––––––––––––––––––––––––––––––––––––––––

DR Peak RMS Duration Track
––––––––––––––––––––––––––––––––––––––––
DR10 -1.40 dB -12.62 dB 4:00 01-Iron Starlet
DR9 -1.40 dB -12.28 dB 7:45 02-Nova
DR11 -1.40 dB -14.61 dB 7:32 03-Mr. Dominator
DR10 -1.40 dB -14.03 dB 6:48 04-For the O.G.
DR9 -1.40 dB -13.01 dB 6:45 05-Hello to the Wind
DR12 -1.40 dB -16.75 dB 6:13 06-Detour Ahead
DR11 -1.40 dB -15.30 dB 5:23 07-Captain’s Song
DR10 -1.40 dB -12.21 dB 4:53 08-Boy Toy
DR12 -1.40 dB -16.86 dB 8:02 09-The Forsaken
DR10 -1.40 dB -12.79 dB 5:40 10-Dark Chambers
––––––––––––––––––––––––––––––––––––––––

Number of tracks: 10
Official DR value: DR10

Samplerate: 96000 Hz
Channels: 2
Bits per sample: 24
Bitrate: 2973 kbps
Codec: FLAC
================================================================================



Thanks to the Original customer.