Chris Brown - Indigo (2019) [Official Digital Download]

Posted By: pyatak
Chris Brown - Indigo (2019) [Official Digital Download]

Chris Brown - Indigo (2019) [Official Digital Download]
FLAC (tracks) 24-bit/44.1 kHz | Front Cover | Time - 02:03:43 minutes | 1,42 GB
R&B | Label: RCA Records, Official Digital Download

In addition to the Nicki Minaj and G-Eazy-assisted single “Wobble Up,” the all-star lineup includes appearances from Justin Bieber, Lil Wayne, Trey Songz, Tory Lanez, Joyner Lucas, Tyga, Gunna, H.E.R., Juvenile, Juicy J, Lil Jon, and more. He also teams up with Drake on their highly-anticipated collaboration “No Guidance,” produced by Boi-1da. The album features a whopping 37 tracks (2017’s Heartbreak on a Full Moon had 45 songs), including the previously released singles “Undecided,” “Back to Love,” and “Wobble Up,” with production from Scott Storch, Hitmaka, OG Parker, The Rascals, J.R. Rotem, Boi-1da, A1 Bentley, and D.A. Doman.

TRACKLIST

1. Chris Brown - Indigo
2. Chris Brown - Back To Love
3. Chris Brown - Come Together
4. Chris Brown - Temporary Lover
5. Chris Brown - Emerald / Burgandy
6. Chris Brown - Red
7. Chris Brown - All I Want
8. Chris Brown - Wobble Up
9. Chris Brown - Need A Stack
10. Chris Brown - Heat
11. Chris Brown - No Guidance
12. Chris Brown - Girl Of My Dreams
13. Chris Brown - Natural Disaster / Aura
14. Chris Brown - Don't Check On Me
15. Chris Brown - Sorry Enough
16. Chris Brown - Juice
17. Chris Brown - You Like That
18. Chris Brown - Troubled Waters
19. Chris Brown - Take A Risk
20. Chris Brown - Lurkin'
21. Chris Brown - Trust Issues / Act In
22. Chris Brown - Cheetah
23. Chris Brown - Undecided
24. Chris Brown - BP / No Judgement
25. Chris Brown - Side Nigga
26. Chris Brown - Throw It Back
27. Chris Brown - All On Me
28. Chris Brown - Sexy
29. Chris Brown - Early 2K
30. Chris Brown - Dear God
31. Chris Brown - Part Of The Plan
32. Chris Brown - Play Catch Up

foobar2000 1.3.16 / Dynamic Range Meter 1.1.1
log date: 2019-06-28 11:29:19

––––––––––––––––––––––––––––––––––––––––
Analyzed: Chris Brown / Indigo
––––––––––––––––––––––––––––––––––––––––

DR Peak RMS Duration Track
––––––––––––––––––––––––––––––––––––––––
DR5 -0.33 dB -7.39 dB 3:13 01-Indigo
DR4 -0.30 dB -5.41 dB 3:40 02-Back To Love
DR5 -0.27 dB -7.03 dB 3:54 03-Come Together
DR4 -0.33 dB -6.34 dB 3:17 04-Temporary Lover
DR6 -0.30 dB -8.13 dB 6:39 05-Emerald / Burgandy
DR4 -0.26 dB -7.03 dB 3:38 06-Red
DR5 -0.30 dB -6.48 dB 3:34 07-All I Want
DR6 -0.33 dB -7.97 dB 3:41 08-Wobble Up
DR5 -0.30 dB -7.10 dB 5:29 09-Need A Stack
DR5 -0.30 dB -6.67 dB 3:53 10-Heat
DR5 -0.26 dB -7.32 dB 4:21 11-No Guidance
DR5 -0.30 dB -6.28 dB 3:22 12-Girl Of My Dreams
DR4 -0.30 dB -6.92 dB 5:03 13-Natural Disaster / Aura
DR6 -0.30 dB -7.21 dB 3:25 14-Don't Check On Me
DR5 -0.26 dB -6.12 dB 4:25 15-Sorry Enough
DR4 -0.35 dB -6.29 dB 3:25 16-Juice
DR5 -0.29 dB -6.51 dB 3:05 17-You Like That
DR4 -0.26 dB -5.75 dB 3:13 18-Troubled Waters
DR5 -0.35 dB -6.44 dB 3:33 19-Take A Risk
DR5 -0.35 dB -6.38 dB 2:49 20-Lurkin'
DR5 -0.29 dB -7.13 dB 4:59 21-Trust Issues / Act In
DR5 -0.29 dB -7.91 dB 2:36 22-Cheetah
DR5 -0.32 dB -6.23 dB 3:05 23-Undecided
DR5 -0.26 dB -6.77 dB 6:21 24-BP / No Judgement
DR6 -0.30 dB -7.47 dB 3:56 25-Side Nigga
DR5 -0.32 dB -6.76 dB 3:07 26-Throw It Back
DR5 -0.26 dB -8.35 dB 3:51 27-All On Me
DR6 -0.27 dB -7.80 dB 4:18 28-Sexy
DR5 -0.32 dB -7.62 dB 3:47 29-Early 2K
DR6 -0.29 dB -9.11 dB 4:02 30-Dear God
DR4 -0.27 dB -6.82 dB 3:03 31-Part Of The Plan
DR5 -0.30 dB -6.83 dB 3:01 32-Play Catch Up
––––––––––––––––––––––––––––––––––––––––

Number of tracks: 32
Official DR value: DR5

Samplerate: 44100 Hz
Channels: 2
Bits per sample: 24
Bitrate: 1628 kbps
Codec: FLAC
================================================================================



Thanks to the Original customer.