Chet Baker - Peace - Enja 24bit Master Edition (1982/2007) [Official Digital Download]

Posted By: pyatak
Chet Baker - Peace - Enja 24bit Master Edition (1982/2007) [Official Digital Download]

Chet Baker - Peace - Enja 24bit Master Edition (1982/2007) [Official Digital Download]
FLAC (tracks) 24-bit/44.1 kHz | Front Cover | Time - 52:09 minutes | 421 MB
Jazz | Label: ENJA RECORDS Matthias Winckelmann, Official Digital Download

1982 album that may be the high-point of Chet's mature years. Intimate combo with vibist/composer David Friedman, drummer Joe Chambers and bassist Buster Williams. Friedman's difficult music inspired Baker to one of his most intense and most thoughtful recordings.

TRACKLIST

1. Chet Baker - 3 + 1 = 5
2. Chet Baker - Peace
4. Chet Baker - The Song Is You
5. Chet Baker - Shadows
6. Chet Baker - For Now
7. Chet Baker - 3 + 1 = 5 (Alternate Take)
8. Chet Baker - Peace (Alternate Take)

foobar2000 1.6.2 / Dynamic Range Meter 1.1.1
log date: 2021-05-07 20:23:27

––––––––––––––––––––––––––––––––––––––––
Analyzed: Chet Baker / Peace - Enja 24bit Master Edition
––––––––––––––––––––––––––––––––––––––––

DR Peak RMS Duration Track
––––––––––––––––––––––––––––––––––––––––
DR11 -1.85 dB -17.00 dB 7:36 01-3 + 1 = 5
DR13 -3.29 dB -21.44 dB 4:08 02-Peace
DR15 -0.01 dB -19.24 dB 7:05 04-The Song Is You
DR15 -4.40 dB -25.80 dB 4:35 05-Shadows
DR13 -3.74 dB -21.54 dB 7:28 06-For Now
DR12 -2.39 dB -18.34 dB 6:54 07-3 + 1 = 5 (Alternate Take)
DR13 -5.81 dB -23.89 dB 4:18 08-Peace (Alternate Take)
––––––––––––––––––––––––––––––––––––––––

Number of tracks: 7
Official DR value: DR13

Samplerate: 44100 Hz
Channels: 2
Bits per sample: 24
Bitrate: 1347 kbps
Codec: FLAC
================================================================================



Thanks to the Original customer.