Cheap Trick - Standing On The Edge (1985/2015) [Official Digital Download 24/96]

Posted By: SERTiL
Cheap Trick - Standing On The Edge (1985/2015) [Official Digital Download 24/96]

Cheap Trick - Standing On The Edge (1985/2015)
FLAC (tracks) 24-bit/96 kHz | Time - 39:50 minutes | 858 MB
Studio Master, Official Digital Download | Artwork: Front Cover

„Standing on the Edge's only highlight comes from the silvery-sounding "Tonight It's You," which peaked just outside the Top 40 at number 44 in the fall of 1985. Like 1983's Next Position Please, Standing on the Edge finds the band without any pizzazz or rock & roll exuberance. The tracks are dull and colorless, with only the single sporting any signs of enthusiasm from any of the band's members. Sleepers like "This Time Around," "How About You," and the ridiculous "Wild Wild Women" are subpar considering what Cheap Trick's capabilities are. Both Zander and Nielsen lack the cohesion that they usually have, and the writing comes off as weak and disregarded. Although Todd Rundgren tried his hardest to get 1983's Next Position Please off the ground, Cheap Trick opted for producer Jack Douglas this time around, whose efforts fared quite the same. It wasn't until 1988's Lap of Luxury that Cheap Trick was finally back on track, scoring their first number one hit with the dreamy-sounding ballad "The Flame.“ (Mike DeGagne, AMG)

Tracklist:
1. Little Sister 03:55
2. Tonight It's You (Album Version) 04:47
3. She's Got Motion 03:22
4. Love Comes 04:41
5. How About You 03:00
6. Standing On the Edge 04:43
7. This Time Around (Album Version) 04:33
8. Rock All Night 02:50
9. Cover Girl 03:42
10. Wild Wild Women 04:17

Personnel:
Robin Zander, vocals, rhythm guitar
Rick Nielsen, lead guitar, backing vocals
Jon Brant, bass, backing vocals
Bun E. Carlos, drums, percussion

Additional musicians:
Mark Radice, keyboards, vocals
Paul Klingberg, additional keyboards

Engineered by Paul Klingberg
Produced by Jack Douglas

Digitally remastered

foobar2000 1.3.7 / Dynamic Range Meter 1.1.1
log date: 2019-02-12 15:07:39

––––––––––––––––––––––––––––––––––––––––
Analyzed: Cheap Trick / Standing On The Edge
––––––––––––––––––––––––––––––––––––––––

DR Peak RMS Duration Track
––––––––––––––––––––––––––––––––––––––––
DR10 -0.71 dB -11.81 dB 3:55 01-Little Sister
DR10 -0.71 dB -12.30 dB 4:48 02-Tonight It's You
DR10 -0.67 dB -11.49 dB 3:23 03-She's Got Motion
DR11 -0.71 dB -13.47 dB 4:41 04-Love Comes
DR10 -0.66 dB -11.96 dB 3:00 05-How About You
DR10 -0.72 dB -12.49 dB 4:44 06-Standing On The Edge
DR10 -0.71 dB -12.04 dB 4:34 07-This Time Around
DR10 -0.71 dB -12.29 dB 2:51 08-Rock All Night
DR10 -0.71 dB -11.35 dB 3:42 09-Cover Girl
DR11 -0.71 dB -13.28 dB 4:17 10-Wild Wild Women
––––––––––––––––––––––––––––––––––––––––

Number of tracks: 10
Official DR value: DR10

Samplerate: 96000 Hz
Channels: 2
Bits per sample: 24
Bitrate: 2930 kbps
Codec: FLAC
================================================================================


Thanks to the Original customer.