Cheap Trick - In Color (1977/2015) [Official Digital Download]

Posted By: SERTiL
Cheap Trick - In Color (1977/2015) [Official Digital Download]

Cheap Trick - In Color (1977/2015)
FLAC (tracks) 24-bit/44.1 kHz | Time - 31:50 minutes | 358 MB
Studio Master, Official Digital Download | Artwork: Front Cover

„Though Cheap Trick's second album, In Color, draws from the same stockpile of Midwestern barroom favorites as their debut album, it was produced by Tom Werman, who had the band strip away their raw attack and replace it with a shiny, radio-ready sound. Consequently, In Color doesn't have the visceral attack of its predecessor, but it still has the same sensibility and a similar set of spectacular songs. From the druggy psychedelia of "Downed" and the bubblegum singalong "I Want You to Want Me" to the "California Girls" homage of "Southern Girls," the album has the same encyclopedic knowledge of rock & roll, as well as the good sense to subvert it with a perverse sense of humor. Portions of the album haven't dated well, simply due to the glossy production, but the songs and music on In Color are as splendid as the band's debut.“ (Stephen Thomas Erlewine, AMG)

Tracklist:
1. Hello There 01:41
2. Big Eyes 03:09
3. Downed 04:11
4. I Want You to Want Me 03:12
5. You're All Talk 03:38
6. Oh Caroline 03:00
7. Clock Strikes Ten 03:03
8. Southern Girls 03:44
9. Come on, Come On 02:39
10. So Good to See You 03:39

Personnel:
Robin Zander, lead vocals, rhythm guitar
Rick Nielsen, lead guitar, backing vocals
Tom Petersson, bass, backing vocals
Bun E. Carlos, drums, percussion

Recorded 1977 at Kendun Recorders, Los Angeles
Engineered by Antonino Reale
Produced by Tom Werman

foobar2000 1.3.7 / Dynamic Range Meter 1.1.1
log date: 2019-02-12 14:00:01

––––––––––––––––––––––––––––––––––––––––
Analyzed: Cheap Trick / In Color
––––––––––––––––––––––––––––––––––––––––

DR Peak RMS Duration Track
––––––––––––––––––––––––––––––––––––––––
DR12 -1.83 dB -16.36 dB 1:41 01-Hello There
DR14 -0.83 dB -15.96 dB 3:09 02-Big Eyes
DR13 -1.30 dB -17.98 dB 4:11 03-Downed
DR14 -1.06 dB -17.35 dB 3:12 04-I Want You To Want Me
DR13 -1.70 dB -17.35 dB 3:38 05-You're All Talk
DR13 -1.90 dB -16.82 dB 3:00 06-Oh Caroline
DR14 -0.59 dB -16.42 dB 3:03 07-Clock Strikes Ten
DR14 -0.51 dB -17.47 dB 3:44 08-Southern Girls
DR14 -0.53 dB -16.67 dB 2:39 09-Come On, Come On
DR12 -1.44 dB -16.35 dB 3:39 10-So Good To See You
––––––––––––––––––––––––––––––––––––––––

Number of tracks: 10
Official DR value: DR13

Samplerate: 44100 Hz
Channels: 2
Bits per sample: 24
Bitrate: 1557 kbps
Codec: FLAC
================================================================================


Thanks to the Original customer.