Cheap Trick - At Budokan (Live) (1979/2015) [Official Digital Download]

Posted By: SERTiL
Cheap Trick - At Budokan (Live) (1979/2015) [Official Digital Download]

Cheap Trick - At Budokan (Live) (1979/2015)
FLAC (tracks) 24-bit/44.1 kHz | Time - 42:14 minutes | 487 MB
Studio Master, Official Digital Download | Artwork: Front Cover

Strangely enough, Cheap Trick's big breakthrough, 1979's „At Budokan“, was almost never released stateside. The band had become superstars in Japan on the strength of their first three studio albums, and when they toured the country in '78, several of their shows were taped for a Japan-only live release. When the resulting album began racking up impressive sales in the U.S. as an expensive import, Epic wisely released it domestically, where it peaked at #4 on the Billboard charts and spawned the top ten hit single "I Want You To Want Me."

One of the reasons for the album's success is that it resembles the raw, direct approach of their self-titled debut, rather than their other two more produced releases. Add the energy of a concert setting, and you have one of the greatest live rock albums ever. If you were to own only a single Cheap Trick release, „At Budokan“ would be the one.

„While their records were entertaining and full of skillful pop, it wasn't until At Budokan that Cheap Trick's vision truly gelled. Many of these songs, like "I Want You to Want Me" and "Big Eyes," were pleasant in their original form, but seemed more like sketches compared to the roaring versions on this album. With their ear-shatteringly loud guitars and sweet melodies, Cheap Trick unwittingly paved the way for much of the hard rock of the next decade, as well as a surprising amount of alternative rock of the 1990s, and it was At Budokan that captured the band in all of its power.“ (Stephen Thomas Erlewine, AMG)

"…Now, in correct sequence, with digitally remastered (and apparently amplified) audience shrieks, one of rock's crucial live documents just got a little livelier." (Entertainment Weekly)

Tracklist:
1. Hello There (Live) 02:27
2. Come on, Come On (Live) 03:16
3. Lookout (Live) 03:03
4. Big Eyes (Live) 03:56
5. Need Your Love (Live) 08:58
6. Ain't That a Shame (Live) 05:11
7. I Want You to Want Me (Live) 03:50
8. Surrender (Live) 04:26
9. Goodnight (Live) 03:10
10. Clock Strikes Ten (Live) 04:03

Personnel:
Robin Zander, lead vocals, rhythm guitar
Rick Nielsen, lead guitar, backing vocals
Tom Petersson, bass, backing vocals
Bun E. Carlos, drums, percussion

Recorded April 28 & 30, 1978 at Nippon Budokan, Tokyo
Engineered by Tomoo Suzuki
Produce by Cheap Trick

Digitally remastered

foobar2000 1.3.7 / Dynamic Range Meter 1.1.1
log date: 2019-02-12 14:35:40

––––––––––––––––––––––––––––––––––––––––
Analyzed: Cheap Trick / At Budokan (Live)
––––––––––––––––––––––––––––––––––––––––

DR Peak RMS Duration Track
––––––––––––––––––––––––––––––––––––––––
DR12 -2.60 dB -16.80 dB 2:27 01-Hello There
DR13 -0.88 dB -14.83 dB 3:16 02-Come On Come On
DR12 -2.15 dB -16.22 dB 3:03 03-Look Out
DR13 -1.40 dB -16.35 dB 3:56 04-Big Eyes
DR15 -1.16 dB -18.51 dB 8:58 05-Need Your Love
DR13 -1.47 dB -16.47 dB 5:11 06-Ain't That A Shame
DR13 -2.04 dB -17.08 dB 3:50 07-I Want You To Want Me
DR13 -1.96 dB -16.42 dB 4:26 08-Surrender
DR12 -2.28 dB -16.50 dB 3:10 09-Goodnight Now
DR13 -0.30 dB -16.90 dB 4:03 10-Clock Strikes Ten
––––––––––––––––––––––––––––––––––––––––

Number of tracks: 10
Official DR value: DR13

Samplerate: 44100 Hz
Channels: 2
Bits per sample: 24
Bitrate: 1594 kbps
Codec: FLAC
================================================================================


Thanks to the Original customer.