Chanticleer - Then and There, Here and Now (2018) [Official Digital Download 24/192]

Posted By: SERTiL
Chanticleer - Then and There, Here and Now (2018) [Official Digital Download 24/192]

Chanticleer - Then and There, Here and Now (2018)
FLAC (tracks) 24-bit/192 kHz | Time - 57:09 minutes | 2.02 GB
Studio Master, Official Digital Download | Artwork: Digital Booklet

Warner Classics is excited to celebrate the 40th anniversary of Chanticleer, “the world’s reigning male chorus” (The New Yorker), with a new recording, Then and There, Here and Now, to be released October 12. The group will tour the album around the world, with 52 performances across the United States, Europe, and Russia including stops in Dublin, Wexford, Paris, Luxembourg, Budapest, Prague, Hannover, Leipzig, Moscow, and St. Petersburg.

Then and There, Here and Now, recorded at Skywalker Ranch, will feature recordings of longtime ensemble favorites including works by Palestrina, Victoria, Stucky, Sametz, and Bates, and popular arrangements by Jennings, McGlynn and others. The recording represents the expansive aesthetic of Chanticleer’s repertoire, from the earliest music to the most recent, some of its favorite composers and arrangers, and the blend of male voices from soprano to contrabass that makes it unique.

Tracklist:
1. Motets, Book 5: "Gaude gloriosa" 02:05
2. "Surrexit pastor bonus" 02:36
3. "Ave verum corpus" 03:50
4. Whispers 05:27
5. Nude Descending a Staircase 02:22
6. "Now is the month of Maying" 01:12
7. "Il bianco e dolce cigno" 02:20
8. "Stelle, vostra mercè l´eccelse sfere" 02:19
9. 7 Madrigals: "Io son la primavera" 02:23
10. "Salve Regina" (Arr. Russell) 05:57
11. Porgy and Bess: Summertime (Arr. Shaw) 03:29
12. Dúlamán 01:57
13. "Járba, Mare Jarba" (Arr. Garrop) 04:14
14. Bei mir bist du schön (Arr. Hinman) 03:19
15. Straight Street (Arr. Jennings) 02:54
16. "I want to die easy" (Arr. Shaw & Parker) 03:09
17. "Hark, I hear the harps eternal" (Arr. Shaw & Parker) 02:11
18. "Keep your hand on the plow" (Arr. Jennings) 03:50
19. I Have Had Singing 01:35

Personnel:
Chanticleer
Fred Scott, conductor

foobar2000 1.3.7 / Dynamic Range Meter 1.1.1
log date: 2018-10-12 19:09:50

––––––––––––––––––––––––––––––––––––––––
Analyzed: Chanticleer / Then and There, Here and Now
––––––––––––––––––––––––––––––––––––––––

DR Peak RMS Duration Track
––––––––––––––––––––––––––––––––––––––––
DR10 -2.66 dB -17.03 dB 2:05 01-Motets, Book 5 - 'Gaude gloriosa'
DR11 -1.59 dB -18.13 dB 2:36 02-'Surrexit pastor bonus'
DR11 -5.20 dB -20.00 dB 3:51 03-'Ave verum corpus'
DR14 -4.17 dB -24.22 dB 5:27 04-Whispers
DR12 -5.39 dB -21.70 dB 2:22 05-Nude Descending a Staircase
DR13 -1.67 dB -19.23 dB 1:13 06-'Now is the month of Maying'
DR11 -3.07 dB -19.15 dB 2:21 07-'Il bianco e dolce cigno'
DR13 -2.40 dB -22.83 dB 2:20 08-'Stelle, vostra merce l eccelse sfere'
DR12 -4.39 dB -19.98 dB 2:24 09-7 Madrigals - 'Io son la primavera'
DR12 -3.75 dB -20.17 dB 5:57 10-'Salve Regina' (Arr. Russell)
DR10 -5.77 dB -20.26 dB 3:30 11-Porgy and Bess - Summertime (Arr. Shaw)
DR15 -1.00 dB -21.93 dB 1:57 12-Dulaman
DR10 -4.23 dB -20.56 dB 4:14 13-'Jarba, Mare Jarba' (Arr. Garrop)
DR13 -4.61 dB -21.05 dB 3:19 14-Bei mir bist du schon (Arr. Hinman)
DR12 -3.30 dB -19.24 dB 2:55 15-Straight Street (Arr. Jennings)
DR10 -3.33 dB -18.07 dB 3:10 16-'I want to die easy' (Arr. Shaw & Parker)
DR11 -4.53 dB -20.16 dB 2:11 17-'Hark, I hear the harps eternal' (Arr. Shaw & Parker)
DR10 -5.09 dB -19.01 dB 3:51 18-'Keep your hand on the plow' (Arr. Jennings)
DR11 -6.14 dB -22.27 dB 1:35 19-I Have Had Singing
––––––––––––––––––––––––––––––––––––––––

Number of tracks: 19
Official DR value: DR12

Samplerate: 192000 Hz
Channels: 2
Bits per sample: 24
Bitrate: 4958 kbps
Codec: FLAC
================================================================================


Thanks to the Original customer.