Cannonball Adderley - Bohemia After Dark (1955/2019) [Official Digital Download]

Posted By: pyatak
Cannonball Adderley - Bohemia After Dark (1955/2019) [Official Digital Download]

Cannonball Adderley - Bohemia After Dark (1955/2019) [Official Digital Download]
FLAC (tracks) 24-bit/44.1 kHz | Front Cover | Time - 47:02 minutes | 441 MB
Jazz | Label: RevOla, Official Digital Download

Bohemia After Dark is an album by jazz drummer Kenny Clarke, featuring the earliest recordings with Cannonball Adderley and Nat Adderley. It was released by Savoy Records in September 1955

TRACKLIST

1. Cannonball Adderley - Bohemia After Dark (Remastered)
2. Cannonball Adderley - Chasm (Remastered)
3. Cannonball Adderley - Willow Weep For Me (Remastered)
4. Cannonball Adderley - Late Entry (Remastered)
5. Cannonball Adderley - Hear Me Talkin' to Ya (Remastered)
6. Cannonball Adderley - With Apologies To Oscar (Remastered)
7. Cannonball Adderley - We'll Be Together Again (Remastered)
8. Cannonball Adderley - Caribbean Cutie (Remastered)

foobar2000 1.6.2 / Dynamic Range Meter 1.1.1
log date: 2021-06-14 11:21:28

––––––––––––––––––––––––––––––––––––––––
Analyzed: Cannonball Adderley / Bohemia After Dark
––––––––––––––––––––––––––––––––––––––––

DR Peak RMS Duration Track
––––––––––––––––––––––––––––––––––––––––
DR11 0.00 dB -12.64 dB 6:06 01-Bohemia After Dark (Remastered)
DR11 0.00 dB -12.39 dB 4:22 02-Chasm (Remastered)
DR12 0.00 dB -13.74 dB 6:22 03-Willow Weep For Me (Remastered)
DR11 0.00 dB -12.74 dB 3:16 04-Late Entry (Remastered)
DR11 0.00 dB -13.30 dB 9:12 05-Hear Me Talkin' to Ya (Remastered)
DR9 0.00 dB -10.18 dB 5:43 06-With Apologies To Oscar (Remastered)
DR12 0.00 dB -14.77 dB 6:57 07-We'll Be Together Again (Remastered)
DR15 0.00 dB -16.43 dB 5:07 08-Caribbean Cutie (Remastered)
––––––––––––––––––––––––––––––––––––––––

Number of tracks: 8
Official DR value: DR12

Samplerate: 44100 Hz
Channels: 2
Bits per sample: 24
Bitrate: 1244 kbps
Codec: FLAC
================================================================================



Thanks to the Original customer.