Ben Paterson - That Old Feeling (2018) [Official Digital Download 24/96]

Posted By: Pisulik
Ben Paterson - That Old Feeling (2018) [Official Digital Download 24/96]

Ben Paterson - That Old Feeling (2018)
FLAC (tracks) 24-bit/96 kHz | Time - 53:15 minutes | 939 MB
Studio Master, Official Digital Download | Artwork: Front cover

Pianist/vocalist Ben Paterson continues the tradition of bouncy, infectious swing established by the drummerless trios of Nat 'King' Cole and Oscar Peterson, drawing upon his musical experiences in both Chicago and New York to deliver a soulful and engaging recording. Joined by longtime Benny Goodman guitarist Chris Flory and powerhouse bassist George Delancey, Ben's trio mixes sophisticated improvisation with heavy doses of the blues, ranging from well known Jazz standards to more recent popular songs.

Tracklist:

01. I'm Old Fashioned
02. You And The Night And The Music
03. Make You Feel My Love
04. Some Of These Days
05. My Ship
06. When I Grow Too Old To Dream
07. Isn't She Lovely
08. Say A Small Prayer
09. The Best Thing For You (Would Be Me)
10. Somewhere Over The Rainbow
11. Hard Times

foobar2000 1.3.7 / Dynamic Range Meter 1.1.1
log date: 2020-01-10 08:12:29

––––––––––––––––––––––––––––––––––––––––
Analyzed: Ben Paterson / That Old Feeling
––––––––––––––––––––––––––––––––––––––––

DR Peak RMS Duration Track
––––––––––––––––––––––––––––––––––––––––
DR10 -0.60 dB -12.15 dB 5:41 01-I'm Old Fashioned
DR10 -0.60 dB -12.17 dB 4:43 02-You And The Night And The Music
DR11 -0.60 dB -13.70 dB 5:33 03-Make You Feel My Love
DR10 -0.60 dB -11.49 dB 5:23 04-Some Of These Days
DR11 -0.60 dB -14.60 dB 4:52 05-My Ship
DR10 -0.60 dB -12.25 dB 4:15 06-When I Grow Too Old To Dream
DR10 -0.60 dB -13.36 dB 4:16 07-Isn't She Lovely
DR12 -0.60 dB -14.45 dB 5:24 08-Say A Small Prayer
DR10 -0.60 dB -12.48 dB 4:53 09-The Best Thing For You (Would Be Me)
DR11 -0.60 dB -14.45 dB 3:46 10-Somewhere Over The Rainbow
DR11 -0.60 dB -13.72 dB 4:32 11-Hard Times
––––––––––––––––––––––––––––––––––––––––

Number of tracks: 11
Official DR value: DR11

Samplerate: 96000 Hz
Channels: 2
Bits per sample: 24
Bitrate: 2425 kbps
Codec: FLAC
================================================================================


All thanks go to the original releaser