Elisabeth Breuer, Helsinki Baroque Orchestra & Aapo Häkkinen - Beethoven: Egmont, Op. 84 (Live) (2019) [24/96]

Posted By: SERTiL
Elisabeth Breuer, Helsinki Baroque Orchestra & Aapo Häkkinen - Beethoven: Egmont, Op. 84 (Live) (2019) [24/96]

Elisabeth Breuer, Helsinki Baroque Orchestra & Aapo Häkkinen - Beethoven: Egmont, Op. 84 (Live) (2019)
FLAC (tracks) 24-bit/96 kHz | Time - 52:20 minutes | 943 MB
Studio Master, Official Digital Download | Artwork: Digital Booklet

This album by the Helsinki Baroque Orchestra playing on period instruments under the direction of Aapo Hakkinen includes Ludwig van Beethoven's (1770-1827) complete incidental music to Goethe's Egmont. Beethoven started to write the incidental music to Goethe's Egmont in the autumn of 1809. The recent experience of Napoleon's siege of Vienna, the Spanish uprising against the French, and the ubiquitous awareness of the hand of the oppressor inspired him to write music in which the drama develops into the musical vision of the Wars of Liberation. It was a commission from the management of the Imperial Court Theatre in Vienna, which in October 1809, oppressed by Napoleon on all sides, had turned again to Egmont, with a view to putting on a new production. Beethoven was tasked with providing the essential and indispensable music, which was however played only from the fourth performance of the new production in June 1810. Beethoven had recently become an ardent reader and admirer of Goethe. He had set Mignon's song Nur wer die Sehnsucht kennt four times in 1808 alone, and this had started an intense preoccupation with songs to Goethe texts. In a letter to Bettina von Arnim in February 1811 Beethoven writes: "My most sincere admiration … for Goethe … I am about to write to him myself about Egmont, for which I have written the music, which I did out of sheer love for his poetry … ". What distinguishes Beethoven's Egmont are great dramatic emotion of style, tightly unified musical ideas, and an absolute determination to create a sense of the triumph of freedom as the Utopian dream of the whole of mankind. The overture, the only one of the ten numbers to be heard regularly today in the concert-hall, draws all these intentions together in concentrated form. Its meaning is revealed only in context, together with the interludes and the final musical episodes.

Tracklist:
1. Egmont, Op. 84: I. Overture (Live) 11:14
2. Egmont, Op. 84: II. Die Trommel gerühret (Live) 03:50
3. Egmont, Op. 84: III. Entracte I. Andante (Live) 05:26
4. Egmont, Op. 84: IV. Entracte II. Larghetto (Live) 06:03
5. Egmont, Op. 84: V. Freudvoll und leidvoll (Live) 02:09
6. Egmont, Op. 84: VI. Entracte III. Allegro - Marcia. Vivace (Live) 06:26
7. Egmont, Op. 84: VII. Entracte IV. Poco sostenuto e risoluto - Larghetto - Andante agitato (Live) 04:55
8. Egmont, Op. 84: VIII. Clärchens Tod (Live) 05:01
9. Egmont, Op. 84: IX. Melodrama. Poco sostenuto - Poco vivace - Andante con moto (Live) 06:00
10. Egmont, Op. 84: X. Siegessymphonie. Allegro con brio (Live) 01:13

Personnel:
Elisabeth Breuer, soprano
Robert Hunger-Bühler, recitation
Helsinki Baroque Orchestra
Aapo Häkkinen, conductor

foobar2000 1.3.7 / Dynamic Range Meter 1.1.1
log date: 2019-08-09 12:19:08

––––––––––––––––––––––––––––––––––––––––
Analyzed: Elisabeth Breuer / Beethoven: Egmont, Op. 84 (Live) (1-2)
Helsinki Baroque Orchestra / Beethoven: Egmont, Op. 84 (Live) (3)
Robert Hunger-Bühler / Beethoven: Egmont, Op. 84 (Live) (4-10)
––––––––––––––––––––––––––––––––––––––––

DR Peak RMS Duration Track
––––––––––––––––––––––––––––––––––––––––
DR12 -6.30 dB -23.96 dB 3:51 02-Egmont, Op. 84: II. Die Trommel gerühret (Live)
DR13 -6.35 dB -25.12 dB 2:10 05-Egmont, Op. 84: V. Freudvoll und leidvoll (Live)
DR9 -6.30 dB -17.59 dB 1:14 10-Egmont, Op. 84: X. Siegessymphonie. Allegro con brio (Live)
DR12 -6.30 dB -23.62 dB 11:17 01-Egmont, Op. 84: I. Overture (Live)
DR14 -6.30 dB -26.53 dB 5:26 03-Egmont, Op. 84: III. Entracte I. Andante (Live)
DR17 -7.64 dB -31.16 dB 6:03 04-Egmont, Op. 84: IV. Entracte II. Larghetto (Live)
DR15 -6.89 dB -28.51 dB 6:26 06-Egmont, Op. 84: VI. Entracte III. Allegro - Marcia. Vivace (Live)
DR16 -6.32 dB -28.06 dB 4:56 07-Egmont, Op. 84: VII. Entracte IV. Poco sostenuto e risoluto - Larghetto - Andante agitato (Live)
DR21 -13.20 dB -40.14 dB 5:02 08-Egmont, Op. 84: VIII. Clärchens Tod (Live)
DR17 -6.32 dB -29.92 dB 6:01 09-Egmont, Op. 84: IX. Melodrama. Poco sostenuto - Poco vivace - Andante con moto (Live)
––––––––––––––––––––––––––––––––––––––––

Number of tracks: 10
Official DR value: DR15

Samplerate: 96000 Hz
Channels: 2
Bits per sample: 24
Bitrate: 2405 kbps
Codec: FLAC
================================================================================


Thanks to the Original customer.