Art Tatum - All That Jazz, Vol. 103- Piano Giant – Art Tatum Live in Hollywood and in Studio (2018) [Official Digital Download]

Posted By: pyatak
Art Tatum - All That Jazz, Vol. 103- Piano Giant – Art Tatum Live in Hollywood and in Studio (2018) [Official Digital Download]

Art Tatum - All That Jazz, Vol. 103- Piano Giant – Art Tatum Live in Hollywood and in Studio (2018) [Official Digital Download]
FLAC (tracks) 24-bit/48 kHz | Front Cover | Time - 60:55 minutes | 456 MB
Jazz | Label: Jube Legends, Official Digital Download

Arthur Tatum Jr. (/ˈteɪtəm/, October 13, 1909 – November 5, 1956) was an American jazz pianist who is widely regarded as one of the greatest in his field. From early in his career, Tatum's technical ability was regarded by fellow musicians as extraordinary. Many pianists attempted to copy him; others questioned their own skills after encountering him, and some even switched instruments in response. In addition to being acclaimed for his virtuoso technique, Tatum extended the vocabulary and boundaries of jazz piano far beyond his initial stride influences, and established new ground in jazz through innovative use of reharmonization, voicing, and bitonality.

Tatum grew up in Toledo, Ohio, where he began playing piano professionally and had his own radio program, rebroadcast nationwide, while still in his teens. He left Toledo in 1932 and had residencies as a solo pianist at clubs in major urban centers including New York, Chicago, and Los Angeles. In that decade, he settled into a pattern that he followed for most of his career – paid performances followed by long after-hours playing, all accompanied by prodigious consumption of alcohol. He was said to be more spontaneous and creative in these after-hours venues, and although the drinking did not negatively affect his playing, it did damage his health.

In the 1940s, Tatum led a commercially successful trio for a short time and began playing in more formal jazz concert settings, including at Norman Granz-produced Jazz at the Philharmonic events. His popularity diminished towards the end of the decade, as he continued to play in his own style, ignoring the rise of bebop. Granz recorded Tatum extensively in solo and small group formats in the mid-1950s, with the last session occurring only two months before the pianist's death from uremia at the age of 47.

TRACKLIST

1. Art Tatum - Just One of Those Things (Live Version): Begin the Beguine
2. Art Tatum - Yesterdays (from "Roberta"): Smoke Gets in Your Eyes
3. Art Tatum - Too Marvelous for Words
4. Art Tatum - I Cover the Waterfront
5. Art Tatum - Body and Soul
6. Art Tatum - On the Sunny Side of the Street
7. Art Tatum - Great Day: Without a Song
8. Art Tatum - Japanese Sandman
9. Art Tatum - Someone to Watch Over Me
10. Art Tatum - Nice Work If You Can Get It
11. Art Tatum - Present Arms: You Took Advantage of Me
12. Art Tatum - Don't Blame Me
13. Art Tatum - Tenderly
14. Art Tatum - Blue Skies
15. Art Tatum - Yesterdays
16. Art Tatum - She's Funny That Way
17. Art Tatum - Willow Weep for Me
18. Art Tatum - George White's Scandals of 1924: Somebody Loves Me
19. Art Tatum - I'll Never Be the Same
20. Art Tatum - Sweet Lorraine

foobar2000 1.6.2 / Dynamic Range Meter 1.1.1
log date: 2021-06-13 15:25:08

––––––––––––––––––––––––––––––––––––––––
Analyzed: Art Tatum / All That Jazz, Vol. 103: Piano Giant – Art Tatum Live in Hollywood and in Studio
––––––––––––––––––––––––––––––––––––––––

DR Peak RMS Duration Track
––––––––––––––––––––––––––––––––––––––––
DR10 0.00 dB -13.34 dB 2:53 01-Just One of Those Things (Live Version): Begin the Beguine
DR13 0.00 dB -18.94 dB 3:56 02-Yesterdays (from "Roberta"): Smoke Gets in Your Eyes
DR11 0.00 dB -14.08 dB 2:20 03-Too Marvelous for Words
DR9 0.00 dB -13.11 dB 2:32 04-I Cover the Waterfront
DR11 0.00 dB -14.38 dB 3:27 05-Body and Soul
DR14 0.00 dB -16.83 dB 3:05 06-On the Sunny Side of the Street
DR10 0.00 dB -12.76 dB 2:27 07-Great Day: Without a Song
DR13 0.00 dB -15.98 dB 3:02 08-Japanese Sandman
DR10 0.00 dB -12.77 dB 3:08 09-Someone to Watch Over Me
DR11 0.00 dB -12.81 dB 2:47 10-Nice Work If You Can Get It
DR9 0.00 dB -12.03 dB 3:24 11-Present Arms: You Took Advantage of Me
DR11 0.00 dB -13.52 dB 2:52 12-Don't Blame Me
DR9 0.00 dB -12.11 dB 3:51 13-Tenderly
DR13 0.00 dB -17.13 dB 2:58 14-Blue Skies
DR10 0.00 dB -12.59 dB 3:05 15-Yesterdays
DR11 0.00 dB -13.12 dB 3:52 16-She's Funny That Way
DR10 0.00 dB -12.79 dB 3:32 17-Willow Weep for Me
DR11 0.00 dB -12.94 dB 2:43 18-George White's Scandals of 1924: Somebody Loves Me
DR10 0.00 dB -12.68 dB 2:34 19-I'll Never Be the Same
DR11 0.00 dB -13.80 dB 2:37 20-Sweet Lorraine
––––––––––––––––––––––––––––––––––––––––

Number of tracks: 20
Official DR value: DR11

Samplerate: 48000 Hz
Channels: 2
Bits per sample: 24
Bitrate: 1350 kbps
Codec: FLAC
================================================================================



Thanks to the Original customer.