Bruce Springsteen & The E Street Band - 2012-09-22 MetLife Stadium, East Rutherford, NJ (2019) [Official Digital Download]

Posted By: SERTiL
Bruce Springsteen & The E Street Band - 2012-09-22 MetLife Stadium, East Rutherford, NJ (2019) [Official Digital Download]

Bruce Springsteen & The E Street Band - 2012-09-22 MetLife Stadium, East Rutherford, NJ (2019)
FLAC (tracks) 24-bit/48 kHz | Time - 207:37 minutes | 2.69 GB
live.brucespringsteen.net, Official Digital Download | Artwork: Front Cover

On a long, special night that rolled into his 63rd birthday the following day, Bruce dials up a spirited, 34-song set brimming with Wrecking Ball material; tour premieres for “Cynthia” and a moving “Into The Fire”; the first “In The Midnight Hour” since New Year’s Eve 1980; a rare coupling of “Meeting Across The River” into “Jungleland”; “Janey, Don’t You Lose Heart,” “Downbound Train” and “It’s Hard To Be A Saint In The City”; plus special guest Gary U.S. Bonds on “Jolé Blon” and “This Little Girl.”

Tracklist:

DISC ONE:
01-Out in the Street (6:19)
02-The Ties That Bind (3:47)
03-Cynthia (5:07)
04-Badlands (6:08)
05-Who'll Stop The Rain? (3:09)
06-Cover Me (4:54)
07-Downbound Train (4:03)
08-We Take Care Of Our Own (4:43)
09-Wrecking Ball (6:23)
10-Death To My Hometown (5:00)
11-My City of Ruins (17:11)
12-It's Hard To Be A Saint In The City (4:48)

DISC TWO:
01-Jole Blon (4:50)
02-This Little Girl (4:53)
03-Pay Me My Money Down (7:40)
04-Janey Don't You Lose Heart (5:02)
05-In the Midnight Hour (4:35)
06-Into the Fire (6:01)
07-Because the Night (6:15)
08-She's the One (5:24)
09-Working On The Highway (4:48)
10-Shackled And Drawn (7:42)
11-Waitin' on a Sunny Day (7:15)

DISC THREE:
01-Meeting Across the River (3:42)
02-Jungleland (12:09)
03-Thunder Road (6:08)
04-Rocky Ground (7:16)
05-Born to Run (5:34)
06-Glory Days (5:47)
07-Seven Nights to Rock (4:37)
08-Dancing in the Dark (7:08)
09-Tenth Avenue Freeze-Out (8:34)
10-Happy Birthday to You (2:23)
11-Twist and Shout (8:38)

Personnel:
Bruce Springsteen - Lead vocal, guitar, harmonica
Roy Bittan - Piano, keyboards, accordion
Nils Lofgren - Guitar, lap steel, backing vocal
Garry Tallent - Bass
Stevie Van Zandt - Electric and acoustic guitars, mandolin, backing vocal
Max Weinberg - Drums
Jake Clemons - Tenor saxophone, percussion, backing vocal
Charlie Giordano - Organ, keyboards, accordion
Soozie Tyrell - Violin, acoustic guitar, percussion, backing vocal
Everett Bradley - Percussion, backing vocal
Curtis King - Backing vocal, percussion
Cindy Mizelle - Backing vocal
Michelle Moore - Backing vocal
Barry Danielian - Trumpet
Clark Gayton - Trombone
Eddie Manion - Baritone and tenor saxophone
Curt Ramm - Trumpet

foobar2000 1.3.7 / Dynamic Range Meter 1.1.1
log date: 2019-07-24 16:53:21

––––––––––––––––––––––––––––––––––––––––
Analyzed: Bruce Springsteen & The E Street Band / 2012/09/22 East Rutherford, NJ
––––––––––––––––––––––––––––––––––––––––

DR Peak RMS Duration Track
––––––––––––––––––––––––––––––––––––––––
DR7 -0.09 dB -8.56 dB 6:19 01-Out in the Street
DR7 -0.09 dB -8.16 dB 3:47 02-The Ties That Bind
DR7 -0.09 dB -8.21 dB 5:07 03-Cynthia
DR7 -0.09 dB -8.36 dB 6:08 04-Badlands
DR8 -0.09 dB -10.00 dB 3:09 05-Who'll Stop The Rain?
DR7 -0.08 dB -8.00 dB 4:54 06-Cover Me
DR8 -0.09 dB -9.27 dB 4:03 07-Downbound Train
DR7 -0.09 dB -8.26 dB 4:43 08-We Take Care of Our Own
DR7 -0.09 dB -9.91 dB 6:23 09-Wrecking Ball
DR8 -0.09 dB -9.29 dB 5:00 10-Death To My Hometown
DR9 -0.09 dB -12.91 dB 17:11 11-My City of Ruins
DR6 -0.07 dB -8.31 dB 4:48 12-It's Hard To Be A Saint In The City
DR6 0.00 dB -8.31 dB 4:50 01-Jole Blon
DR6 0.00 dB -7.39 dB 4:53 02-This Little Girl
DR7 -0.03 dB -8.74 dB 7:40 03-Pay Me My Money Down
DR8 -0.07 dB -10.07 dB 5:02 04-Janey Don't You Lose Heart
DR7 -0.09 dB -8.41 dB 4:35 05-In the Midnight Hour
DR7 -0.07 dB -10.42 dB 6:01 06-Into the Fire
DR7 0.00 dB -7.84 dB 6:15 07-Because the Night
DR6 -0.03 dB -7.87 dB 5:24 08-She's the One
DR7 0.00 dB -8.67 dB 4:48 09-Working On The Highway
DR6 0.00 dB -8.46 dB 7:42 10-Shackled and Drawn
DR7 0.00 dB -8.57 dB 7:15 11-Waitin' on a Sunny Day
DR11 -0.07 dB -14.35 dB 3:42 01-Meeting Across the River
DR7 -0.02 dB -10.02 dB 12:09 02-Jungleland
DR6 -0.04 dB -8.18 dB 6:08 03-Thunder Road
DR9 -0.10 dB -13.30 dB 7:15 04-Rocky Ground
DR6 -0.04 dB -7.34 dB 5:34 05-Born to Run
DR7 -0.02 dB -7.84 dB 5:47 06-Glory Days
DR6 0.00 dB -7.74 dB 4:37 07-Seven Nights to Rock
DR7 0.00 dB -7.42 dB 7:08 08-Dancing in the Dark
DR6 0.00 dB -8.84 dB 8:34 09-Tenth Avenue Freeze-Out
DR11 -0.02 dB -15.94 dB 2:23 10-Happy Birthday to You
DR6 0.00 dB -7.46 dB 8:38 11-Twist and Shout
––––––––––––––––––––––––––––––––––––––––

Number of tracks: 34
Official DR value: DR7

Samplerate: 48000 Hz
Channels: 2
Bits per sample: 24
Bitrate: 1907 kbps
Codec: FLAC
================================================================================


Thanks to the Original customer.