Tags
Language
Tags

Nial Fuller’s - Price Action Trading Course

Posted By: ParRus
Nial Fuller’s - Price Action Trading Course

Nial Fuller’s - Price Action Trading Course
WEBRip | English | AVI | 1280 x 720 | AVC ~3212 Kbps | 30 fps
MP3 | 128 Kbps | 44.1 KHz | 2 channels | 05:14:50 | 2.25 GB
Genre: eLearning Video / Forex, Trading, Stock

Learn Simple Yet Powerful Price Action Trading Strategies That Will Transform Your Trading Knowledge & Results
Ranging Price action :
Now this is where the chart can become interesting. By using the price action counting of the swing highs and lows we can know at a very early stage IFprice is going to start to develop range bound activity.
• Price is not making new highs OR new lows I don’t mean all time highs/lows or new day/week/month highs/lows… just simply a new chart swing high or low. Price will start to stall and not make a new swing high/low and typically will stay contained within the last swing high and low that was made on the
chart. Isn’t that a simple definition?

Range rule definitions :
• Price doesn’t make a new high or low on the move
• If price stays contained within the last swing high and swing low to be made,
price will remain range bound until it makes news move highs or lows.
• Price confirms the range when a lower high and a higher low is made within the
previous swing high and low.
In the chart below you can see that from the left side of the chart price is making LH’s & LL’s all the way to the first blue arrow which in real time would be the latest lowest low.
Price then moves higher to make a HH. These two swing levels have been highlighted.
At the point of the chart, in real time, price needs to either start moving higher past the last swing high (red Arrow) making a new high OR move lower past the last swing low.

Range considerations :
Some considerations for identifying ranges at an early stage in real time are;
• That price could be creating a pullback or bias change and as the chart unfolds for you a new high or low could be made voiding the potential range.
• There are several definitions of a range one of the more common ones is that you are looking for a double touch of support and resistance. For me this is a little too late in the game as price may not create the double touch as in the example above.

With this price action method you can identify the possibility of a range developing VERY early without having to worry IF price does or does not give you the double touch. As you can see with that definition you would interpret that price is not range bound at all but, you can clearly see visually that price is moving sideways without any definition.
You can find my other useful: Trading-posts

General
Complete name : Nial Fuller - Inside Bar Forex Trading Strategy Video Tutorial By Nial Fuller.avi
Format : AVI
Format/Info : Audio Video Interleave
File size : 68.9 MiB
Duration : 2 min 52 s
Overall bit rate : 3 353 kb/s
Writing application : Lavf52.31.0

Video
ID : 0
Format : MPEG-4 Visual
Format profile : Simple@L1
Format settings, BVOP : No
Format settings, QPel : No
Format settings, GMC : No warppoints
Format settings, Matrix : Default (H.263)
Codec ID : DX50
Codec ID/Hint : DivX 5
Duration : 2 min 52 s
Bit rate : 3 212 kb/s
Width : 1 280 pixels
Height : 720 pixels
Display aspect ratio : 16:9
Frame rate : 30.000 FPS
Color space : YUV
Chroma subsampling : 4:2:0
Bit depth : 8 bits
Scan type : Progressive
Compression mode : Lossy
Bits/(Pixel*Frame) : 0.116
Stream size : 66.0 MiB (96%)
Writing library : Lavc52.20.0

Audio
ID : 1
Format : MPEG Audio
Format version : Version 1
Format profile : Layer 3
Format settings : Joint stereo / MS Stereo
Codec ID : 55
Codec ID/Hint : MP3
Duration : 2 min 52 s
Bit rate mode : Constant
Bit rate : 128 kb/s
Channel(s) : 2 channels
Sampling rate : 44.1 kHz
Compression mode : Lossy
Stream size : 2.63 MiB (4%)
Alignment : Aligned on interleaves
Interleave, duration : 26 ms (0.78 video frame)
Interleave, preload duration : 26 ms
Writing library : LAME3.97

Screenshots

Nial Fuller’s - Price Action Trading Course

Nial Fuller’s - Price Action Trading Course

Nial Fuller’s - Price Action Trading Course

Nial Fuller’s - Price Action Trading Course

✅ Exclusive eLearning Videos ParRus-blogadd to bookmarks

Feel free to contact me PM
when links are dead or want any repost

Nial Fuller’s - Price Action Trading Course