Tags
Language
Tags

Data Structures & Algorithms - Python (08/2021)

Posted By: ParRus
Data Structures & Algorithms - Python (08/2021)

Data Structures & Algorithms - Python
WEBRip | English | MP4 | 1280 x 720 | AVC ~578 Kbps | 30 fps
AAC | 128 Kbps | 48.0 KHz | 2 channels | Subs: English (.srt) | ~7 hours | 2.12 GB
Genre: eLearning Video / Development, Programming Languages, Python

The Ultimate Python Coding Interview Bootcamp
What you'll learn
Mastery of Data Structures and Algorithms
Confidently answer technical interview questions
Time and Space Complexity of Data Structures and Algorithms
Strengthen your skills as a developer

Requirements
Basic programming
No experience with data structures or algorithms required

Description
This course is different…

After each line of code, an animation of the data structure or algorithm is updated to show exactly what that line of code did.



The animations provide some huge advantages to students:

Increased understanding of the concepts

Greater rate of retention

The material can be covered in a fraction of the time



That means that you can actually learn more material in less time and have higher retention of the material.



That is the key combination of factors to prepare you for the technical interview that lands you your dream job!



I invite you to watch a few of the videos in this course to see what I mean. The difference will be noticeable right away!



I spent over a year to create this course with the goal that an absolute beginner can take it and understand all of the concepts the first time through.



What you will get in this course…

Over 100 hand crafted HD videos that use animations to illustrate technical concepts.



Here is what you will learn in this course:



Technical

Big O notation



Data Structures

Lists

Linked Lists

Doubly Linked Lists

Stacks & Queues

Binary Trees

Hash Tables

Graphs



Algorithms

Sorting

Bubble Sort

Selection Sort

Insertion Sort

Merge Sort

Quick Sort

Searching

Breadth First Search

Depth First Search

I am excited to help you move forward with your coding and career goals.

Let's get started!

Who this course is for:
Python programmers preparing for an interview
University students taking a data structures and algorithms course

also You can find my other useful: Development-posts

General
Complete name : \004 Graph_ Big O.mp4
Format : MPEG-4
Format profile : Base Media
Codec ID : isom (isom/iso2/avc1/mp41)
File size : 31.4 MiB
Duration : 6 min 8 s
Overall bit rate : 714 kb/s
Writing application : Lavf58.12.100

Video
ID : 1
Format : AVC
Format/Info : Advanced Video Codec
Format profile : Main@L3.1
Format settings : CABAC / 4 Ref Frames
Format settings, CABAC : Yes
Format settings, RefFrames : 4 frames
Codec ID : avc1
Codec ID/Info : Advanced Video Coding
Duration : 6 min 8 s
Bit rate : 578 kb/s
Nominal bit rate : 3 000 kb/s
Width : 1 280 pixels
Height : 720 pixels
Display aspect ratio : 16:9
Frame rate mode : Constant
Frame rate : 30.000 FPS
Color space : YUV
Chroma subsampling : 4:2:0
Bit depth : 8 bits
Scan type : Progressive
Bits/(Pixel*Frame) : 0.021
Stream size : 25.4 MiB (81%)
Writing library : x264 core 148
Encoding settings : cabac=1 / ref=3 / deblock=1:0:0 / analyse=0x1:0x111 / me=umh / subme=6 / psy=1 / psy_rd=1.00:0.00 / mixed_ref=1 / me_range=16 / chroma_me=1 / trellis=1 / 8x8dct=0 / cqm=0 / deadzone=21,11 / fast_pskip=1 / chroma_qp_offset=-2 / threads=22 / lookahead_threads=3 / sliced_threads=0 / nr=0 / decimate=1 / interlaced=0 / bluray_compat=0 / constrained_intra=0 / bframes=3 / b_pyramid=2 / b_adapt=1 / b_bias=0 / direct=1 / weightb=1 / open_gop=0 / weightp=2 / keyint=60 / keyint_min=6 / scenecut=0 / intra_refresh=0 / rc_lookahead=60 / rc=cbr / mbtree=1 / bitrate=3000 / ratetol=1.0 / qcomp=0.60 / qpmin=0 / qpmax=69 / qpstep=4 / vbv_maxrate=3000 / vbv_bufsize=6000 / nal_hrd=none / filler=0 / ip_ratio=1.40 / aq=1:1.00

Audio
ID : 2
Format : AAC
Format/Info : Advanced Audio Codec
Format profile : LC
Codec ID : mp4a-40-2
Duration : 6 min 8 s
Duration_LastFrame : -1 ms
Bit rate mode : Constant
Bit rate : 128 kb/s
Channel(s) : 2 channels
Channel positions : Front: L R
Sampling rate : 44.1 kHz
Frame rate : 43.066 FPS (1024 SPF)
Compression mode : Lossy
Stream size : 5.62 MiB (18%)
Default : Yes
Alternate group : 1

Screenshots

Data Structures & Algorithms - Python (08/2021)

Data Structures & Algorithms - Python (08/2021)

Data Structures & Algorithms - Python (08/2021)

Data Structures & Algorithms - Python (08/2021)

Exclusive eLearning Videos ParRus-blogadd to bookmarks

Data Structures & Algorithms - Python (08/2021)