Tags
Language
Tags

Bishoujo Senshi Sailor Moon Super S BD (1995-1996 (2019 release))

Posted By: Lebedev30
Bishoujo Senshi Sailor Moon Super S BD (1995-1996 (2019 release))

Bishoujo Senshi Sailor Moon Super S BD (1995-1996 (2019 release))
BDRip | MKV | 1440x1080 | H264@5000 Kbps | 39x ~ 25mn | 39x ~0.9 Gb
日本語 FLAC@508 Kbps | 2 channels | Subtitles: None
Genre: demon, magic, magical girl, romance, shoujo


Description:
Sailor Moon Super S turns the focus from Usagi to little Chibiusa and the pursuit of dreams as an enemy from the hidden past (the Dead Moon Circus) returns during a total solar eclipse, bent on revenge against the joyful people of Earth and intent on spoiling everyone's dreams by finding the one called Pegasus, who is hiding in Chibiusa's dreams.






01. Meeting of Destiny: The Night Pegasus Dances
02. Super Transformation Once Again: Pegasus`s Power
03. Protect Mom`s Dream: Double Moon`s New Attack
04. Catch Pegasus: The Amazon`s Trap
05. The Perfect Couple: Usagi and Mamoru`s Love
06. Artemis Is Cheating? Enter the Mysterious Kitten
07. Makoto`s Friendship: The Girl Who Admired Pegasus
08. Connecting Hearts: Chibi-Usa and Pegasus
09. Protect Mamoru: Ninja Usagi`s Jealousy
10. Forest of Illusion: A Beautiful Fairy`s Invitation
11. Drive to the Heavens: The Dream Car Fueled with Love
12. Aim for No. 1 in Japan: The Troubles of a Pretty Swordswoman
13. We Love Fashion: The Stylish Guardians
14. Storm of Love: Minako`s Grand Two-Timing Plan
15. The Secret Mansion: A Menu of Love for You
16. Believe in Pegasus: The Four Guardians` Super Transformation
17. Shining Summer Days: Ami Under the Sea-Breeze
18. Become a Prima: Usagi`s Ballet
19. Juban Holiday: The Carefree Princess
20. Destined Partners? Makoto`s Innocence
21. Shadow of Evil: The Trio`s Last Chance
22. Mirrors of Dreams: The Amazon`s Last Stage
23. The Amazoness: Nightmare from Behind the Mirrors
24. True Power Explodes: Ami`s Melody of the Heart
25. Flames of Passion: Mars`s Raging Super Attack
26. Dentist of Horrors? Palla-Palla`s House
27. Clash of Dreams: Minako and Makoto`s Broken Friendship
28. Overcome Your Fear: The Jump to Freedom
29. Don`t Lose Sight of Your Dreams: The Mirror of Truth
30. Pegasus Disappears: Wavering Friendship
31. Pegasus`s Secret: The Boy Who Protects the Dream World
32. Chibi-Usa`s Little Rhapsody of Love
33. Dream to Be an Adult: The Amazoness` Confusion
34. Terror in Motion: The Dark Queen`s Evil Hand
35. The Source of Darkness: Dead Moon Circus
36. Labyrinth of Mirrors: Chibi Moon Captured
37. The Golden Crystal Appears: Nehelenia`s Magic
38. When the Crystal Shines: The Beautiful Power of Dreams
39. Dreams Forever: Fill the Heavens with Light


General
Format : Matroska
Format version : Version 4 / Version 2
File size : 942 MiB
Duration : 23 min 54 s
Overall bit rate mode : Variable
Overall bit rate : 5 509 kb/s
Encoded date : UTC 2020-02-24 14:09:24
Writing application : mkvmerge v32.0.0 ('Astral Progressions') 64-bit
Writing library : libebml v1.3.7 + libmatroska v1.5.0

Video
ID : 2
Format : AVC
Format/Info : Advanced Video Codec
Format profile : High@L5
Format settings : CABAC / 16 Ref Frames
Format settings, CABAC : Yes
Format settings, RefFrames : 16 frames
Codec ID : V_MPEG4/ISO/AVC
Duration : 23 min 54 s
Bit rate : 5 000 kb/s
Width : 1 440 pixels
Height : 1 080 pixels
Display aspect ratio : 4:3
Frame rate mode : Constant
Frame rate : 23.976 (24000/1001) FPS
Color space : YUV
Chroma subsampling : 4:2:0
Bit depth : 8 bits
Scan type : Progressive
Bits/(Pixel*Frame) : 0.134
Stream size : 855 MiB (91%)
Writing library : x264 core 157 r2935 545de2f
Encoding settings : cabac=1 / ref=16 / deblock=1:0:0 / analyse=0x3:0x133 / me=tesa / subme=11 / psy=1 / psy_rd=1.00:0.00 / mixed_ref=1 / me_range=24 / chroma_me=1 / trellis=2 / 8x8dct=1 / cqm=0 / deadzone=21,11 / fast_pskip=0 / chroma_qp_offset=-2 / threads=12 / lookahead_threads=3 / sliced_threads=0 / nr=0 / decimate=1 / interlaced=0 / bluray_compat=0 / constrained_intra=0 / bframes=16 / b_pyramid=2 / b_adapt=2 / b_bias=0 / direct=3 / weightb=1 / open_gop=0 / weightp=2 / keyint=240 / keyint_min=23 / scenecut=40 / intra_refresh=0 / rc_lookahead=60 / rc=2pass / mbtree=1 / bitrate=5000 / ratetol=1.0 / qcomp=0.60 / qpmin=0 / qpmax=69 / qpstep=4 / cplxblur=20.0 / qblur=0.5 / ip_ratio=1.40 / aq=1:1.00
Default : Yes
Forced : No

Audio
ID : 1
Format : FLAC
Format/Info : Free Lossless Audio Codec
Codec ID : A_FLAC
Duration : 23 min 54 s
Bit rate mode : Variable
Bit rate : 508 kb/s
Channel(s) : 2 channels
Channel positions : Front: L R
Sampling rate : 48.0 kHz
Frame rate : 11.719 FPS (4096 SPF)
Bit depth : 16 bits
Stream size : 86.9 MiB (9%)
Writing library : libFLAC 1.3.2 (UTC 2017-01-01)
Default : Yes
Forced : No

Menu
00:00:00.000 : en:Avant
00:00:20.020 : en:Opening
00:01:52.112 : en:A Part
00:12:27.747 : en:B Part
00:21:51.310 : en:Ending
00:23:21.400 : en:Yokoku


Screenshots

Bishoujo Senshi Sailor Moon Super S BD (1995-1996 (2019 release))

Bishoujo Senshi Sailor Moon Super S BD (1995-1996 (2019 release))

Bishoujo Senshi Sailor Moon Super S BD (1995-1996 (2019 release))


My publications | Rss Channel