Tags
Language
Tags

Bishoujo Senshi Sailor Moon BD (1992 (2017 release))

Posted By: Lebedev30
Bishoujo Senshi Sailor Moon BD (1992 (2017 release))

Bishoujo Senshi Sailor Moon BD (1992 (2017 release))
BDRip | MKV | 1440x1080 | H264@5000 Kbps | 46x ~ 25mn | 46x ~950 Mb
日本語 FLAC@490 Kbps | 2 channels | Subtitles: None
Genre: alien, comedy, demon, humanoid alien, love polygon, magic, magical girl, middle school, romance, school life, shoujo, super power


Description:
Bishoujo Senshi Sailor Moon is a story about a klutzy, crybaby, 14 year old underachiever named Tsukino Usagi who was given some transformation items and super powers. Usagi transforms into the pretty, sailor suited fighter called Sailor Moon to fight against evil. But even as the super hero, Sailor Moon is klutzy and a crybaby. Then as time goes by, Usagi is joined by some other girls to form a team of sailor suited fighters.






01. The Crybaby Usagi`s Beautiful Transformation
02. I Will Punish You! The House of Fortune Is the Monster Mansion
03. The Mysterious Sleeping Sickness, Protect the Girls in Love
04. Learn How to Be Skinny from Usagi
05. Scent of a Monster: Chanela Will Steal Your Love
06. Protect the Melody of Love: Usagi Plays Cupid
07. Usagi Learns Her Lesson: Becoming a Star Is Hard Work
08. Is the Girl Genius a Demon?! The Brainwashing Cram School of Horror
09. Usagi`s Disaster: Beware of the Clock of Confusion
10. The Cursed Bus: Enter Mars, the Guardian of Fire
11. Usagi vs Rei: Nightmare in Dream Land
12. I Want a Boyfriend: The Luxury Cruise Ship Trap
13. Girls Unite: The End of Jadeite
14. A New Enemy Appears: Nephrite`s Evil Crest
15. Usagi`s Panic: Rei`s First Date
16. A Girl`s Dream: Usagi Becomes a Bride
17. Usagi`s a Model: The Flash of the Monster Camera
18. Shingo`s Love: The Grieving Doll
19. Usagi Joy: A Love Letter from Tuxedo Mask
20. The Summer, the Beach, the Youth and Ghosts
21. Protect the Children`s Dreams: Friendship Through Anime
22. Romance Under the Moon: Usagi`s First Kiss
23. Wish Upon a Star! Naru`s First Love
24. Naru`s Tears: Nephrite Dies for Love
25. Jupiter, the Powerful Girl in Love
26. Restore Naru`s Smile: Usagi`s Friendship
27. Crushing On Ami: The Boy Who Can See the Future
28. The Painting of Love: Usagi and Mamoru Get Closer
29. Total Chaos: The Messy Love Rectangle
30. Grandpa Loses Control: Rei in Danger
31. Loved and Chased: Luna`s Worst Day Ever
32. Umino`s Resolve: I`ll Protect Naru
33. Enter Venus, the Last Sailor Guardian
34. The Shining Silver Crystal: The Moon Princess Appears
35. Returning Memories: Usagi and Mamoru`s Past
36. Usagi`s Confusion: Is Tuxedo Mask Evil?
37. Let`s Become a Princess: Usagi`s Bizarre Training
38. The Snow, the Mountains, Friendship and Monsters
39. Paired with a Monster: Mako, the Ice Skating Queen
40. The Legendary Lake Yokai: The Bond of Usagi`s Family
41. I Won`t Run Away from Love Anymore: Ami vs. Mamoru
42. Sailor Venus`s Past: Minako`s Tragic Love
43. Usagi Abandoned: The Falling-Out of the Sailor Guardians
44. Usagi`s Awakening: A Message from the Distant Past
45. Death of the Sailor Guardians: The Tragic Final Battle
46. Usagi`s Eternal Wish: A Brand New Life


General
Format : Matroska
Format version : Version 4 / Version 2
File size : 950 MiB
Duration : 24 min 10 s
Overall bit rate mode : Variable
Overall bit rate : 5 493 kb/s
Encoded date : UTC 2020-01-28 15:14:07
Writing application : mkvmerge v32.0.0 ('Astral Progressions') 64-bit
Writing library : libebml v1.3.7 + libmatroska v1.5.0

Video
ID : 2
Format : AVC
Format/Info : Advanced Video Codec
Format profile : High@L5
Format settings : CABAC / 16 Ref Frames
Format settings, CABAC : Yes
Format settings, RefFrames : 16 frames
Codec ID : V_MPEG4/ISO/AVC
Duration : 24 min 10 s
Bit rate : 5 000 kb/s
Width : 1 440 pixels
Height : 1 080 pixels
Display aspect ratio : 4:3
Frame rate mode : Constant
Frame rate : 23.976 (24000/1001) FPS
Color space : YUV
Chroma subsampling : 4:2:0
Bit depth : 8 bits
Scan type : Progressive
Bits/(Pixel*Frame) : 0.134
Stream size : 865 MiB (91%)
Writing library : x264 core 157 r2935 545de2f
Encoding settings : cabac=1 / ref=16 / deblock=1:0:0 / analyse=0x3:0x133 / me=tesa / subme=11 / psy=1 / psy_rd=1.00:0.00 / mixed_ref=1 / me_range=24 / chroma_me=1 / trellis=2 / 8x8dct=1 / cqm=0 / deadzone=21,11 / fast_pskip=0 / chroma_qp_offset=-2 / threads=12 / lookahead_threads=3 / sliced_threads=0 / nr=0 / decimate=1 / interlaced=0 / bluray_compat=0 / constrained_intra=0 / bframes=16 / b_pyramid=2 / b_adapt=2 / b_bias=0 / direct=3 / weightb=1 / open_gop=0 / weightp=2 / keyint=240 / keyint_min=23 / scenecut=40 / intra_refresh=0 / rc_lookahead=60 / rc=2pass / mbtree=1 / bitrate=5000 / ratetol=1.0 / qcomp=0.60 / qpmin=0 / qpmax=69 / qpstep=4 / cplxblur=20.0 / qblur=0.5 / ip_ratio=1.40 / aq=1:1.00
Default : Yes
Forced : No

Audio
ID : 1
Format : FLAC
Format/Info : Free Lossless Audio Codec
Codec ID : A_FLAC
Duration : 24 min 10 s
Bit rate mode : Variable
Bit rate : 490 kb/s
Channel(s) : 2 channels
Channel positions : Front: L R
Sampling rate : 48.0 kHz
Frame rate : 11.719 FPS (4096 SPF)
Bit depth : 16 bits
Stream size : 84.8 MiB (9%)
Writing library : libFLAC 1.3.2 (UTC 2017-01-01)
Default : Yes
Forced : No

Menu
00:00:00.000 : en:Opening
00:01:33.093 : en:A Part
00:11:34.694 : en:B Part
00:22:06.325 : en:Ending
00:23:37.416 : en:Yokoku


Screenshots

Bishoujo Senshi Sailor Moon BD (1992 (2017 release))

Bishoujo Senshi Sailor Moon BD (1992 (2017 release))

Bishoujo Senshi Sailor Moon BD (1992 (2017 release))


My publications | Rss Channel