Tags
Language
Tags

Seikai no Senki Movie (2000-2001)

Posted By: Lebedev30
Seikai no Senki Movie (2000-2001)

Seikai no Senki Movie (2000-2001)
BDRip | MKV | 1440x1080 | H264@5000 Kbps | 1x ~ 25mn,1x ~ 90mn,1x ~ 92mn,1x ~ 120mn | 13x ~0.9-4.7 Gb
日本語 FLAC@602 Kbps | 2 channels | Subtitles: None
Genre: action, genetic modification, romance, science fiction


Description:
* Based on the Seikai no Senki sci-fi novel series by Morioka Hiroyuki.

Three years after their adventure, Lafiel becomes captain on the brand new assault ship Basroil and Jinto finishes his training to become a supply officer and joins Lafiel's crew. They set out to join a large fleet with the mission to defend the strategically important Aptic Gate from a force 15 times larger than their own. And to make matters worse, their new fleet commander is from the Bebaus family, a family notorious for their "Spectacular Insanity".












01. TV Special
02. TV Special
03. TV Special
04. TV Special


General
Format : Matroska
Format version : Version 4 / Version 2
File size : 1 003 MiB
Duration : 25 min 1 s
Overall bit rate mode : Variable
Overall bit rate : 5 607 kb/s
Encoded date : UTC 2020-01-10 18:36:44
Writing application : mkvmerge v32.0.0 ('Astral Progressions') 64-bit
Writing library : libebml v1.3.7 + libmatroska v1.5.0

Video
ID : 2
Format : AVC
Format/Info : Advanced Video Codec
Format profile : High@L5
Format settings : CABAC / 10 Ref Frames
Format settings, CABAC : Yes
Format settings, RefFrames : 10 frames
Codec ID : V_MPEG4/ISO/AVC
Duration : 25 min 1 s
Bit rate : 5 000 kb/s
Width : 1 440 pixels
Height : 1 080 pixels
Display aspect ratio : 4:3
Frame rate mode : Constant
Frame rate : 29.970 (30000/1001) FPS
Color space : YUV
Chroma subsampling : 4:2:0
Bit depth : 8 bits
Scan type : Progressive
Bits/(Pixel*Frame) : 0.107
Stream size : 895 MiB (89%)
Writing library : x264 core 142 r2431 ac76440
Encoding settings : cabac=1 / ref=10 / deblock=1:1:1 / analyse=0x3:0x113 / me=umh / subme=8 / psy=1 / psy_rd=0.40:0.00 / mixed_ref=1 / me_range=16 / chroma_me=1 / trellis=1 / 8x8dct=1 / cqm=0 / deadzone=21,11 / fast_pskip=1 / chroma_qp_offset=-2 / threads=12 / lookahead_threads=3 / sliced_threads=0 / nr=0 / decimate=1 / interlaced=0 / bluray_compat=0 / constrained_intra=0 / bframes=5 / b_pyramid=2 / b_adapt=2 / b_bias=0 / direct=3 / weightb=1 / open_gop=0 / weightp=2 / keyint=300 / keyint_min=29 / scenecut=40 / intra_refresh=0 / rc_lookahead=50 / rc=2pass / mbtree=1 / bitrate=5000 / ratetol=1.0 / qcomp=0.60 / qpmin=0 / qpmax=69 / qpstep=4 / cplxblur=20.0 / qblur=0.5 / ip_ratio=1.40 / aq=1:0.60
Default : Yes
Forced : No

Audio
ID : 1
Format : FLAC
Format/Info : Free Lossless Audio Codec
Codec ID : A_FLAC
Duration : 25 min 1 s
Bit rate mode : Variable
Bit rate : 602 kb/s
Channel(s) : 2 channels
Channel positions : Front: L R
Sampling rate : 48.0 kHz
Frame rate : 11.719 FPS (4096 SPF)
Bit depth : 16 bits
Stream size : 108 MiB (11%)
Writing library : libFLAC 1.3.2 (UTC 2017-01-01)
Default : Yes
Forced : No

Menu
00:00:00.000 : en:PROGLUE
00:01:18.979 : en:A PART
00:05:41.174 : en:B PART
00:09:54.260 : en:C PART
00:13:06.085 : en:D PART
00:15:48.548 : en:E PART
00:18:36.916 : en:F PART
00:21:54.680 : en:EPILOGUE


Screenshots

Seikai no Senki Movie (2000-2001)

Seikai no Senki Movie (2000-2001)

Seikai no Senki Movie (2000-2001)


My publications | Rss Channel