Tags
Language
Tags

Seikai no Senki III (2005)

Posted By: Lebedev30
Seikai no Senki III (2005)

Seikai no Senki III (2005)
BDRip | MKV | 1440x1080 | H264@5000 Kbps | 2x ~ 30mn | 2x ~1.1-1.7 Gb
日本語 FLAC@707 Kbps | 2 channels | Subtitles: None
Genre: genetic modification, human enhancement, romance, science fiction, seinen, space travel


Description:
* Based on the Seikai no Senki sci-fi novel series by Morioka Hiroyuki.

Jinto and Lafiel were riding on the lightly-armed transport ship Bokbrusue and navigating at the planar space of the Hyde System. This was for Jinto to govern the Hyde System, which returned to imperial rule after the Union retreated, officially as an Earl. However, the government of Martine, Jinto's motherland, resisted obstinately against the Empire. Meanwhile, the First Devastation Fleet, formed with a new ship type called Attack Vessel, traveled to the Hyde System for drilling practices…






01. Chance Meeting of the Stars
02. Family Dining Table


General
Format : Matroska
Format version : Version 4 / Version 2
File size : 1.20 GiB
Duration : 30 min 8 s
Overall bit rate mode : Variable
Overall bit rate : 5 695 kb/s
Encoded date : UTC 2020-01-13 19:51:27
Writing application : mkvmerge v32.0.0 ('Astral Progressions') 64-bit
Writing library : libebml v1.3.7 + libmatroska v1.5.0

Video
ID : 2
Format : AVC
Format/Info : Advanced Video Codec
Format profile : High@L5
Format settings : CABAC / 10 Ref Frames
Format settings, CABAC : Yes
Format settings, RefFrames : 10 frames
Codec ID : V_MPEG4/ISO/AVC
Duration : 30 min 8 s
Bit rate : 5 000 kb/s
Width : 1 920 pixels
Height : 1 080 pixels
Display aspect ratio : 16:9
Frame rate mode : Constant
Frame rate : 29.970 (30000/1001) FPS
Color space : YUV
Chroma subsampling : 4:2:0
Bit depth : 8 bits
Scan type : Progressive
Bits/(Pixel*Frame) : 0.080
Stream size : 1.05 GiB (88%)
Writing library : x264 core 142 r2431 ac76440
Encoding settings : cabac=1 / ref=10 / deblock=1:1:1 / analyse=0x3:0x113 / me=umh / subme=8 / psy=1 / psy_rd=0.40:0.00 / mixed_ref=1 / me_range=16 / chroma_me=1 / trellis=1 / 8x8dct=1 / cqm=0 / deadzone=21,11 / fast_pskip=1 / chroma_qp_offset=-2 / threads=12 / lookahead_threads=3 / sliced_threads=0 / nr=0 / decimate=1 / interlaced=0 / bluray_compat=0 / constrained_intra=0 / bframes=5 / b_pyramid=2 / b_adapt=2 / b_bias=0 / direct=3 / weightb=1 / open_gop=0 / weightp=2 / keyint=300 / keyint_min=29 / scenecut=40 / intra_refresh=0 / rc_lookahead=50 / rc=2pass / mbtree=1 / bitrate=5000 / ratetol=1.0 / qcomp=0.60 / qpmin=0 / qpmax=69 / qpstep=4 / cplxblur=20.0 / qblur=0.5 / ip_ratio=1.40 / aq=1:0.60
Default : Yes
Forced : No

Audio
ID : 1
Format : FLAC
Format/Info : Free Lossless Audio Codec
Codec ID : A_FLAC
Duration : 30 min 8 s
Bit rate mode : Variable
Bit rate : 707 kb/s
Channel(s) : 2 channels
Channel positions : Front: L R
Sampling rate : 48.0 kHz
Frame rate : 11.719 FPS (4096 SPF)
Bit depth : 16 bits
Stream size : 152 MiB (12%)
Writing library : libFLAC 1.3.2 (UTC 2017-01-01)
Default : Yes
Forced : No

Menu
00:00:00.000 : en:AVANT-TITLE
00:03:01.915 : en:MAIN STORY
00:27:45.631 : en:NEXT
00:28:23.335 : en:ENDING


Screenshots

Seikai no Senki III (2005)

Seikai no Senki III (2005)

Seikai no Senki III (2005)


My publications | Rss Channel