Tags
Language
Tags

Seikai no Senki (2000)

Posted By: Lebedev30
Seikai no Senki (2000)

Seikai no Senki (2000)
BDRip | MKV | 1440x1080 | H264@5000 Kbps | 13x ~ 25mn | 13x ~0.9 Gb
日本語 FLAC@700 Kbps | 2 channels | Subtitles: None
Genre: action, air force, genetic modification, military, science fiction, space travel


Description:
* Based on the sci-fi novel series by Morioka Hiroyuki.

Three years after their adventure, Lafiel becomes captain on the brand new assault ship Basroil and Jinto finishes his training to become a supply officer and joins Lafiel's crew. They set out to join a large fleet with the mission to defend the strategically important Aptic Gate from a force 15 times larger than their own. And to make matters worse, their new fleet commander is from the Bebaus family, a family notorious for their "Spectacular Insanity".






01. Reunion
02. Operation Phantom Flame
03. Assault Ship Basroil
04. The First Campaign
05. Spectacular Insanity
06. Remembrance Dinner
07. Escape in the Dark
08. The Eve of the Decisive Battle
09. The Basroil`s Battle
10. Shooting Star
11. The Flaming Battlefield
12. The Battle for Aptic Gate
13. The Shape of Bonds


General
Format : Matroska
Format version : Version 4 / Version 2
File size : 1 021 MiB
Duration : 25 min 2 s
Overall bit rate mode : Variable
Overall bit rate : 5 702 kb/s
Encoded date : UTC 2020-01-11 05:42:14
Writing application : mkvmerge v32.0.0 ('Astral Progressions') 64-bit
Writing library : libebml v1.3.7 + libmatroska v1.5.0

Video
ID : 2
Format : AVC
Format/Info : Advanced Video Codec
Format profile : High@L5
Format settings : CABAC / 10 Ref Frames
Format settings, CABAC : Yes
Format settings, RefFrames : 10 frames
Codec ID : V_MPEG4/ISO/AVC
Duration : 25 min 2 s
Bit rate : 5 000 kb/s
Width : 1 440 pixels
Height : 1 080 pixels
Display aspect ratio : 4:3
Frame rate mode : Constant
Frame rate : 29.970 (30000/1001) FPS
Color space : YUV
Chroma subsampling : 4:2:0
Bit depth : 8 bits
Scan type : Progressive
Bits/(Pixel*Frame) : 0.107
Stream size : 895 MiB (88%)
Writing library : x264 core 142 r2431 ac76440
Encoding settings : cabac=1 / ref=10 / deblock=1:1:1 / analyse=0x3:0x113 / me=umh / subme=8 / psy=1 / psy_rd=0.40:0.00 / mixed_ref=1 / me_range=16 / chroma_me=1 / trellis=1 / 8x8dct=1 / cqm=0 / deadzone=21,11 / fast_pskip=1 / chroma_qp_offset=-2 / threads=12 / lookahead_threads=3 / sliced_threads=0 / nr=0 / decimate=1 / interlaced=0 / bluray_compat=0 / constrained_intra=0 / bframes=5 / b_pyramid=2 / b_adapt=2 / b_bias=0 / direct=3 / weightb=1 / open_gop=0 / weightp=2 / keyint=300 / keyint_min=29 / scenecut=40 / intra_refresh=0 / rc_lookahead=50 / rc=2pass / mbtree=1 / bitrate=5000 / ratetol=1.0 / qcomp=0.60 / qpmin=0 / qpmax=69 / qpstep=4 / cplxblur=20.0 / qblur=0.5 / ip_ratio=1.40 / aq=1:0.60
Default : Yes
Forced : No

Audio
ID : 1
Format : FLAC
Format/Info : Free Lossless Audio Codec
Codec ID : A_FLAC
Duration : 25 min 2 s
Bit rate mode : Variable
Bit rate : 700 kb/s
Channel(s) : 2 channels
Channel positions : Front: L R
Sampling rate : 48.0 kHz
Frame rate : 11.719 FPS (4096 SPF)
Bit depth : 16 bits
Stream size : 125 MiB (12%)
Writing library : libFLAC 1.3.2 (UTC 2017-01-01)
Default : Yes
Forced : No

Menu
00:00:00.000 : en:AVANT-TITLE
00:01:58.752 : en:OPENING
00:03:33.780 : en:MAIN STORY
00:22:52.037 : en:ENDING
00:24:30.001 : en:NEXT


Screenshots

Seikai no Senki (2000)

Seikai no Senki (2000)

Seikai no Senki (2000)


My publications | Rss Channel