Tags
Language
Tags

Vinland Saga (2019) (24)

Posted By: Lebedev30
Vinland Saga (2019) (24)

Vinland Saga (2019) (24)
WEBRip | MKV | 1920x1080 | H264@5441 Kbps | 1x ~ 25mn | 1x ~1 Gb
日本語 E-AC-3@224 Kbps | 2 channels | Subtitles: English, Español, Português, Italiano, Deutsch, Français, 中文, 한국어
Genre: action, feudal warfare, historical, military, seinen, swordplay, violence


Description:
* Based on an action historical seinen manga written and drawn by Yukimura Makoto.

As a child, Thorfinn sat at the feet of the great Leif Ericson and thrilled to wild tales of a land far to the west. But his youthful fantasies were shattered by a mercenary raid. Raised by the Vikings who murdered his family, Thorfinn became a terrifying warrior, forever seeking to kill the band's leader, Askeladd, and avenge his father. Sustaining Throfinn through his ordeal are his pride in his family and his dreams of a fertile westward land, a land without war or slavery… the land Leif called Vinland.






24. End of the Prologue


General
Format : Matroska
Format version : Version 4 / Version 2
File size : 1.00 GiB
Duration : 24 min 44 s
Overall bit rate : 5 797 kb/s
Encoded date : UTC 2019-12-29 16:27:42
Writing application : mkvmerge v41.0.0 ('Smarra') 64-bit
Writing library : libebml v1.3.9 + libmatroska v1.5.2

Video
ID : 1
Format : AVC
Format/Info : Advanced Video Codec
Format profile : High@L4
Format settings : CABAC / 4 Ref Frames
Format settings, CABAC : Yes
Format settings, RefFrames : 4 frames
Codec ID : V_MPEG4/ISO/AVC
Duration : 24 min 44 s
Bit rate mode : Constant
Bit rate : 5 441 kb/s
Nominal bit rate : 10 000 kb/s
Width : 1 920 pixels
Height : 1 080 pixels
Display aspect ratio : 16:9
Frame rate mode : Constant
Frame rate : 23.976 (24000/1001) FPS
Color space : YUV
Chroma subsampling : 4:2:0
Bit depth : 8 bits
Scan type : Progressive
Bits/(Pixel*Frame) : 0.109
Stream size : 963 MiB (94%)
Language : Japanese
Default : Yes
Forced : No
Color range : Limited
Color primaries : BT.709
Transfer characteristics : BT.709
Matrix coefficients : BT.709

Audio #1
ID : 2
Format : E-AC-3
Format/Info : Enhanced Audio Coding 3
Codec ID : A_EAC3
Duration : 24 min 44 s
Bit rate mode : Constant
Bit rate : 224 kb/s
Channel(s) : 2 channels
Channel positions : Front: L R
Sampling rate : 48.0 kHz
Frame rate : 187.500 FPS (256 SPF)
Compression mode : Lossy
Stream size : 39.6 MiB (4%)
Language : Japanese
Service kind : Complete Main
Default : Yes
Forced : No

Audio #2
ID : 3
Format : AAC
Format/Info : Advanced Audio Codec
Format profile : LC
Codec ID : A_AAC-2
Duration : 24 min 44 s
Bit rate : 128 kb/s
Channel(s) : 2 channels
Channel positions : Front: L R
Sampling rate : 48.0 kHz
Frame rate : 46.875 FPS (1024 SPF)
Compression mode : Lossy
Stream size : 22.6 MiB (2%)
Language : Japanese
Default : No
Forced : No

Text #1
ID : 4
Format : ASS
Codec ID : S_TEXT/ASS
Codec ID/Info : Advanced Sub Station Alpha
Duration : 21 min 18 s
Bit rate : 77 b/s
Count of elements : 240
Compression mode : Lossless
Stream size : 12.1 KiB (0%)
Language : English
Default : Yes
Forced : No

Text #2
ID : 5
Format : ASS
Codec ID : S_TEXT/ASS
Codec ID/Info : Advanced Sub Station Alpha
Duration : 21 min 18 s
Bit rate : 78 b/s
Count of elements : 238
Compression mode : Lossless
Stream size : 12.3 KiB (0%)
Language : French
Default : No
Forced : No

Text #3
ID : 6
Format : ASS
Codec ID : S_TEXT/ASS
Codec ID/Info : Advanced Sub Station Alpha
Duration : 21 min 18 s
Bit rate : 75 b/s
Count of elements : 228
Compression mode : Lossless
Stream size : 11.8 KiB (0%)
Language : German
Default : No
Forced : No

Text #4
ID : 7
Format : ASS
Codec ID : S_TEXT/ASS
Codec ID/Info : Advanced Sub Station Alpha
Duration : 21 min 18 s
Bit rate : 78 b/s
Count of elements : 240
Compression mode : Lossless
Stream size : 12.3 KiB (0%)
Language : Italian
Default : No
Forced : No

Text #5
ID : 8
Format : ASS
Codec ID : S_TEXT/ASS
Codec ID/Info : Advanced Sub Station Alpha
Duration : 21 min 18 s
Bit rate : 83 b/s
Count of elements : 241
Compression mode : Lossless
Stream size : 13.0 KiB (0%)
Language : Korean
Default : No
Forced : No

Text #6
ID : 9
Format : ASS
Codec ID : S_TEXT/ASS
Codec ID/Info : Advanced Sub Station Alpha
Duration : 21 min 18 s
Bit rate : 73 b/s
Count of elements : 238
Compression mode : Lossless
Stream size : 11.5 KiB (0%)
Language : Portuguese
Default : No
Forced : No

Text #7
ID : 10
Format : ASS
Codec ID : S_TEXT/ASS
Codec ID/Info : Advanced Sub Station Alpha
Duration : 21 min 18 s
Bit rate : 76 b/s
Count of elements : 240
Compression mode : Lossless
Stream size : 11.9 KiB (0%)
Language : Spanish
Default : No
Forced : No

Text #8
ID : 11
Format : ASS
Codec ID : S_TEXT/ASS
Codec ID/Info : Advanced Sub Station Alpha
Duration : 21 min 18 s
Bit rate : 79 b/s
Count of elements : 240
Compression mode : Lossless
Stream size : 12.4 KiB (0%)
Language : Spanish
Default : No
Forced : No

Text #9
ID : 12
Format : ASS
Codec ID : S_TEXT/ASS
Codec ID/Info : Advanced Sub Station Alpha
Duration : 21 min 18 s
Bit rate : 70 b/s
Count of elements : 241
Compression mode : Lossless
Stream size : 11.0 KiB (0%)
Language : Chinese
Default : No
Forced : No


Screenshots

Vinland Saga (2019) (24)

Vinland Saga (2019) (24)

Vinland Saga (2019) (24)


My publications | Rss Channel